VERSION	0.00.00	1.04.00
FES_MODE	0
BPM_DEF	216.000	216.000	216.000	216.000
MET_DEF	4	4
RESOLUTION	384
CLK_DEF	576
COMPATIBLE_CODE	MA2

BPM	0	0	216.000
MET	0	0	4	4

NMSTR	1	192	0
NMSSL	1	192	0	96	192	4
NMTAP	3	0	0
NMTAP	3	0	1
NMTAP	3	96	4
NMTAP	3	96	5
NMTAP	3	192	6
NMTAP	3	192	7
NMTAP	3	288	2
NMTAP	3	288	3
NMTAP	4	0	3
NMTAP	4	0	7
NMTAP	4	48	0
NMTAP	4	48	4
NMTAP	4	144	2
NMTAP	4	144	6
NMTAP	4	192	1
NMTAP	4	192	5
NMTAP	4	288	0
NMTAP	4	288	7
NMTAP	5	0	3
NMTAP	5	0	4
NMTAP	5	96	6
NMTAP	5	96	7
NMTAP	5	144	2
NMTAP	5	144	3
NMTAP	5	192	0
NMTAP	5	192	1
BRTAP	5	240	4
BRTAP	5	240	5
NMSTR	6	0	0
NMSI_	6	0	0	96	24	4
NMTAP	6	96	6
NMSTR	6	144	6
NMSI_	6	144	6	96	24	2
NMTAP	6	240	4
NMSTR	6	288	4
NMSI_	6	288	4	96	24	1
NMSTR	7	96	7
NMSI_	7	96	7	96	24	3
NMTAP	7	192	1
NMSTR	7	240	1
NMSI_	7	240	1	96	24	5
NMTAP	7	336	3
NMSTR	8	0	3
NMSI_	8	0	3	96	24	6
NMSTR	8	192	1
NMSI_	8	192	1	96	24	4
NMTAP	8	288	7
NMSTR	8	336	7
NMSI_	8	336	7	96	24	2
NMTAP	9	48	4
NMSTR	9	96	4
NMSI_	9	96	4	96	24	0
NMSTR	9	288	6
NMSI_	9	288	6	96	24	3
NMTAP	10	0	0
NMSTR	10	48	0
NMSI_	10	48	0	96	24	5
NMTAP	10	144	3
NMSTR	10	192	3
NMSI_	10	192	3	96	24	7
NMTAP	10	288	0
NMSTR	11	0	1
NMSI_	11	0	1	96	24	5
NMSTR	11	48	3
NMSI_	11	48	3	96	24	7
NMTAP	11	240	5
NMSTR	11	288	5
NMSI_	11	288	5	96	24	2
NMSTR	12	96	7
NMSI_	12	96	7	96	24	3
NMSTR	12	144	1
NMSI_	12	144	1	96	24	5
NMTAP	12	336	3
NMSTR	13	0	3
NMSI_	13	0	3	96	24	6
NMSTR	13	192	5
NMSI_	13	192	5	96	24	3
NMSTR	13	240	0
NMSI_	13	240	0	96	24	4
NMTAP	14	48	4
NMSTR	14	96	4
NMSI_	14	96	4	96	24	1
NMSTR	14	288	6
NMSI_	14	288	6	96	24	2
NMSTR	14	336	1
NMSI_	14	336	1	96	24	3
NMTAP	15	144	2
NMSTR	15	192	2
NMSI_	15	192	2	96	24	5
NMTAP	15	288	0
NMSTR	16	0	7
NMSI_	16	0	7	96	24	2
NMSTR	16	48	0
NMSI_	16	48	0	96	24	5
NMTAP	16	240	2
NMSTR	16	288	2
NMSI_	16	288	2	96	24	5
NMSTR	17	96	0
NMSI_	17	96	0	96	24	5
NMSTR	17	144	7
NMSI_	17	144	7	96	24	2
NMTAP	17	336	0
NMSTR	18	0	5
NMSI_	18	0	5	96	24	2
NMSTR	18	192	1
NMSI_	18	192	1	96	24	5
NMSTR	18	240	6
NMSI_	18	240	6	96	24	2
NMSTR	18	336	4
NMSI_	18	336	4	96	24	7
NMSTR	19	96	0
NMSI_	19	96	0	96	24	3
NMSTR	19	288	0
NMSI_	19	288	0	96	24	4
NMSTR	19	336	6
NMSI_	19	336	6	96	24	2
NMSTR	20	48	3
NMSI_	20	48	3	96	24	0
NMSTR	20	192	7
NMSI_	20	192	7	96	24	4
NMHLD	21	0	0	208
NMHLD	21	208	1	176
NMHLD	22	0	4	96
NMHLD	22	96	3	192
NMHLD	22	288	7	192
NMHLD	23	96	6	96
NMHLD	23	192	0	192
NMHLD	24	0	4	192
NMSTR	24	300	5
NMSSR	24	300	5	96	132	1
NMTAP	24	300	6
NMSTR	26	0	6
NMSI_	26	0	6	96	24	2
NMTAP	26	96	0
NMSTR	26	144	0
NMSI_	26	144	0	96	24	4
NMTAP	26	240	1
NMSTR	26	288	1
NMSI_	26	288	1	96	24	5
NMSTR	27	96	7
NMSI_	27	96	7	96	24	1
NMTAP	27	192	5
NMSTR	27	240	5
NMSI_	27	240	5	96	24	3
NMTAP	27	336	1
NMSTR	28	0	1
NMSI_	28	0	1	96	24	5
NMSTR	28	192	7
NMSI_	28	192	7	96	24	3
NMTAP	28	288	1
NMSTR	28	336	1
NMSI_	28	336	1	96	24	5
NMTAP	29	48	2
NMSTR	29	96	2
NMSI_	29	96	2	96	24	6
NMSTR	29	288	0
NMSI_	29	288	0	96	24	6
NMTAP	30	0	4
NMSTR	30	48	4
NMSI_	30	48	4	96	24	2
NMTAP	30	144	6
NMSTR	30	192	6
NMSI_	30	192	6	96	24	2
NMSTR	31	0	0
NMSI_	31	0	0	96	24	6
NMSTR	31	48	7
NMSI_	31	48	7	96	24	1
NMTAP	31	240	1
NMTAP	31	240	6
NMSTR	31	288	1
NMSI_	31	288	1	96	24	4
NMSTR	31	288	6
NMSI_	31	288	6	96	24	3
NMSTR	32	96	3
NMSI_	32	96	3	96	24	5
NMSTR	32	144	4
NMSI_	32	144	4	96	24	2
NMTAP	32	336	2
NMTAP	32	336	5
NMSTR	33	0	2
NMSI_	33	0	2	96	24	7
NMSTR	33	0	5
NMSI_	33	0	5	96	24	0
NMSTR	33	192	1
NMSI_	33	192	1	96	24	5
NMSTR	33	240	7
NMSI_	33	240	7	96	24	3
NMTAP	34	48	3
NMTAP	34	48	5
NMSTR	34	96	3
NMSI_	34	96	3	96	24	7
NMSTR	34	96	5
NMSI_	34	96	5	96	24	1
NMSTR	34	288	6
NMSI_	34	288	6	96	24	2
NMSTR	34	336	0
NMSI_	34	336	0	96	24	4
NMTAP	35	144	2
NMTAP	35	144	4
NMSTR	35	192	2
NMSV_	35	192	2	96	24	0
NMSTR	35	192	4
NMSV_	35	192	4	96	24	6
NMTAP	36	0	6
NMTAP	36	0	7
NMTAP	36	96	2
NMTAP	36	96	3
NMTAP	36	192	6
NMTAP	36	192	7
NMTAP	36	240	0
NMTAP	36	240	1
NMTAP	36	336	4
NMTAP	36	336	5
NMTAP	37	48	0
NMTAP	37	48	1
NMTAP	37	96	1
NMTAP	37	96	2
NMTAP	37	192	5
NMTAP	37	192	6
NMTAP	37	288	1
NMTAP	37	288	2
NMTAP	37	336	0
NMTAP	37	336	6
NMTAP	38	48	2
NMTAP	38	48	4
NMTAP	38	144	2
NMTAP	38	144	6
NMTAP	38	192	1
NMTAP	38	192	5
NMTAP	38	288	1
NMTAP	38	288	7
NMTAP	39	0	3
NMTAP	39	0	5
NMTAP	39	48	3
NMTAP	39	48	7
NMTAP	39	144	1
NMTAP	39	144	5
NMTAP	39	240	3
NMTAP	39	240	7
NMTAP	39	288	0
NMTAP	39	288	4
NMTAP	40	0	1
NMTAP	40	0	3
NMTAP	40	96	6
NMTAP	40	96	7
NMTAP	40	144	2
NMTAP	40	144	3
NMTAP	41	0	2
NMTAP	41	40	3
NMTAP	41	80	1
NMTAP	41	120	3
NMTAP	41	160	0
NMTAP	41	200	3
NMTAP	41	240	2
NMTAP	41	280	4
NMTAP	41	320	2
NMTAP	41	360	6
NMTAP	42	16	2
NMTAP	42	56	5
NMTAP	42	96	4
NMTAP	42	136	6
NMTAP	42	176	4
NMTAP	42	216	7
NMTAP	42	256	4
NMTAP	42	296	5
NMTAP	42	336	3
NMTAP	42	376	5
NMTAP	43	32	1
NMTAP	43	72	7
NMTAP	43	192	0
NMTAP	43	232	4
NMTAP	43	272	1
NMTAP	43	312	5
NMTAP	43	352	2
NMTAP	44	8	6
NMTAP	44	48	3
NMTAP	44	88	7
NMTAP	44	128	4
NMTAP	44	168	0
NMTAP	44	208	3
NMTAP	44	248	7
NMTAP	44	288	2
NMTAP	44	328	6
NMTAP	44	368	1
NMTAP	45	24	5
NMTAP	45	64	0
NMTAP	45	104	4
NMTAP	45	144	3
NMTAP	45	184	7
NMTAP	45	224	0
NMTAP	45	264	3
NMTAP	45	264	4
NMTAP	46	0	2
NMTAP	46	40	6
NMTAP	46	80	2
NMTAP	46	120	3
NMTAP	46	160	1
NMTAP	46	200	3
NMTAP	46	240	2
NMTAP	46	280	4
NMTAP	46	320	2
NMTAP	46	360	3
NMTAP	47	16	7
NMTAP	47	56	6
NMTAP	47	96	0
NMTAP	47	136	6
NMTAP	47	176	7
NMTAP	47	216	5
NMTAP	47	256	7
NMTAP	47	296	6
NMTAP	47	336	3
NMTAP	47	376	4
NMTAP	48	32	1
NMTAP	48	72	4
NMTAP	48	112	3
NMTAP	48	152	6
NMTAP	48	192	1
NMTAP	48	232	4
NMTAP	48	272	3
NMTAP	48	312	6
NMTAP	48	352	0
NMTAP	49	8	5
NMTAP	49	48	2
NMTAP	49	88	7
NMTAP	49	128	1
NMTAP	49	168	6
NMTAP	49	208	3
NMTAP	49	248	4
NMTAP	49	288	0
NMTAP	49	328	6
NMTAP	49	368	2
NMTAP	50	24	7
NMTAP	50	64	3
NMTAP	50	104	5
NMTAP	50	144	1
NMTAP	50	184	4
NMTAP	50	224	0
NMTAP	50	264	1
NMTAP	50	264	7
BRTAP	51	0	0
NMTAP	51	40	0
NMTAP	51	80	0
BRTAP	51	120	4
NMTAP	51	156	4
NMTAP	51	196	4
BRTAP	51	240	2
NMTAP	51	276	2
NMTAP	51	320	6
BRTAP	51	360	6
BRTAP	52	96	1
NMTAP	52	136	1
NMTAP	52	176	1
BRTAP	52	216	5
NMTAP	52	256	5
NMTAP	52	296	5
BRTAP	52	336	3
NMTAP	52	376	3
NMTAP	53	32	7
BRTAP	53	72	7
BRTAP	53	192	0
NMTAP	53	232	0
NMTAP	53	272	1
BRTAP	53	312	2
NMTAP	53	352	2
NMTAP	54	8	1
BRTAP	54	48	0
NMTAP	54	88	0
NMTAP	54	128	7
BRTAP	54	168	7
BRTAP	54	288	5
NMTAP	54	328	5
NMTAP	54	368	4
BRTAP	55	24	3
NMTAP	55	64	3
NMTAP	55	104	4
BRTAP	55	144	5
NMTAP	55	184	5
NMTAP	55	224	2
BRTAP	55	264	2
NMTAP	56	0	0
NMTAP	56	0	4
NMTAP	56	48	2
NMTAP	56	48	6
NMTAP	56	96	3
NMTAP	56	96	7
NMTAP	56	144	1
NMTAP	56	144	5
NMTAP	56	240	0
NMTAP	56	240	7
NMTAP	56	288	0
NMTAP	56	288	7
NMTAP	57	0	0
NMTAP	57	0	4
NMTAP	57	48	1
NMTAP	57	48	5
NMTAP	57	96	2
NMTAP	57	96	6
NMTAP	57	144	3
NMTAP	57	144	7
NMTAP	57	192	2
NMTAP	57	192	6
NMTAP	57	240	1
NMTAP	57	240	5
NMTAP	57	288	0
NMTAP	57	288	4
NMTAP	57	336	3
NMTAP	57	336	7
NMTAP	58	72	0
NMTAP	58	72	1
NMTAP	58	168	4
NMTAP	58	168	5
NMTAP	58	264	6
NMTAP	58	264	7
NMTAP	58	360	2
NMTAP	58	360	3
NMSTR	59	96	0
NMSV_	59	96	0	96	24	5
NMTAP	59	192	6
NMSTR	59	240	6
NMSV_	59	240	6	96	24	3
NMSTR	59	336	5
NMSI_	59	336	5	96	24	1
NMSTR	60	144	7
NMSV_	60	144	7	96	24	2
NMTAP	60	240	1
NMSTR	60	288	1
NMSV_	60	288	1	96	24	4
NMSTR	61	0	2
NMSI_	61	0	2	96	24	6
NMSTR	61	192	7
NMSI_	61	192	7	96	24	5
NMTAP	61	288	1
NMSTR	61	336	1
NMSI_	61	336	1	96	24	5
NMSTR	62	48	6
NMSI_	62	48	6	96	24	2
NMSTR	62	240	1
NMSI_	62	240	1	96	24	3
NMTAP	62	336	7
NMSTR	63	0	7
NMSI_	63	0	7	96	24	3
NMSTR	63	96	1
NMSI_	63	96	1	96	24	5
NMSTR	63	288	0
NMSCL	63	288	0	96	24	5
NMTAP	64	0	1
NMSTR	64	48	1
NMSUL	64	48	1	96	24	5
NMSTR	64	144	6
NMSV_	64	144	6	96	24	3
NMSTR	64	336	7
NMSCR	64	336	7	96	24	2
NMTAP	65	48	6
NMSTR	65	96	6
NMSUR	65	96	6	96	24	2
NMSTR	65	192	1
NMSV_	65	192	1	96	24	4
NMSTR	66	0	0
NMSUL	66	0	0	96	24	4
NMTAP	66	96	5
NMSTR	66	144	5
NMSV_	66	144	5	96	24	2
NMSTR	66	240	4
NMSV_	66	240	4	96	24	3
NMSTR	67	48	7
NMSUR	67	48	7	96	24	3
NMTAP	67	144	2
NMSTR	67	192	2
NMSV_	67	192	2	96	24	5
NMSTR	67	288	3
NMSV_	67	288	3	96	24	4
NMTAP	68	0	2
NMHLD	68	96	6	144
NMTAP	68	192	5
NMHLD	68	240	4	144
NMTAP	68	336	1
NMHLD	69	0	0	144
NMTAP	69	96	6
NMHLD	69	144	7	144
NMTAP	69	240	1
NMHLD	69	288	5	96
NMHLD	70	0	3	144
NMTAP	70	96	2
NMTAP	70	144	6
NMHLD	70	240	0	144
NMTAP	70	336	1
NMHLD	71	0	7	144
NMTAP	71	96	6
NMHLD	71	144	0	144
NMSTR	71	288	7
NMSV_	71	288	7	96	24	4
NMSTR	72	0	7
NMSV_	72	0	7	96	24	2
NMSTR	72	96	7
NMSI_	72	96	7	96	24	3
NMSTR	72	192	7
NMSSL	72	192	7	96	48	3
NMTAP	72	288	6
NMTAP	73	0	6
NMSTR	73	48	6
NMSUL	73	48	6	96	24	1
NMSTR	73	144	3
NMSV_	73	144	3	96	24	4
NMSTR	73	336	0
NMSV_	73	336	0	96	24	6
NMTAP	74	48	4
NMSTR	74	96	4
NMSV_	74	96	4	96	24	2
NMSTR	74	192	6
NMSI_	74	192	6	96	24	2
NMSTR	75	0	7
NMSV_	75	0	7	96	24	1
NMTAP	75	96	3
NMSTR	75	144	3
NMSV_	75	144	3	96	24	5
NMSTR	75	240	1
NMSI_	75	240	1	96	24	5
NMSTR	76	48	0
NMSI_	76	48	0	96	24	4
NMSTR	76	48	7
NMSI_	76	48	7	96	24	3
NMTAP	76	192	2
NMTAP	76	192	5
NMSTR	76	288	1
NMSI_	76	288	1	96	24	4
NMSTR	76	288	6
NMSI_	76	288	6	96	24	3
NMTAP	77	96	0
NMHLD	77	144	0	216
NMTAP	77	312	2
NMHLD	77	360	7	216
NMTAP	78	144	5
NMHLD	78	192	1	216
NMTAP	78	360	0
NMHLD	79	24	4	216
NMTAP	79	192	6
NMHLD	79	240	3	216
NMTAP	80	24	2
NMHLD	80	72	7	216
NMTAP	80	240	6
NMHLD	80	288	4	216
NMTAP	81	72	0
NMTAP	81	120	0
NMSTR	81	288	0
NMSI_	81	288	0	96	24	5
NMSTR	81	288	1
NMSI_	81	288	1	96	24	4
BRTAP	82	96	3
BRTAP	82	96	6
NMSTR	82	144	6
NMSI_	82	144	6	96	24	3
NMSTR	82	144	7
NMSI_	82	144	7	96	24	2
BRTAP	82	336	1
BRTAP	82	336	4
NMSTR	83	0	0
NMSI_	83	0	0	96	24	3
NMSTR	83	0	1
NMSI_	83	0	1	96	24	5
BRTAP	83	192	2
BRTAP	83	192	4
NMSTR	83	240	6
NMSI_	83	240	6	96	24	2
NMSTR	83	240	7
NMSI_	83	240	7	96	24	4
BRTAP	84	48	3
BRTAP	84	48	5
NMSTR	84	96	1
NMSI_	84	96	1	96	24	4
NMSTR	84	96	7
NMSI_	84	96	7	96	24	3
BRTAP	84	288	2
BRTAP	84	288	5
NMSTR	84	336	0
NMSI_	84	336	0	96	24	4
NMSTR	84	336	6
NMSI_	84	336	6	96	24	3
BRTAP	85	144	2
BRTAP	85	144	5
NMSTR	85	192	1
NMSI_	85	192	1	96	24	4
NMSTR	85	192	6
NMSI_	85	192	6	96	24	3
BRTAP	86	0	2
BRTAP	86	0	5
NMSTR	86	48	3
NMSI_	86	48	3	96	24	0
NMSTR	86	48	4
NMSI_	86	48	4	96	24	7
BRTAP	86	240	1
BRTAP	86	240	6
NMSTR	86	288	0
NMSI_	86	288	0	96	24	2
NMSTR	86	288	4
NMSI_	86	288	4	96	24	6
BRTAP	87	96	2
BRTAP	87	96	6
NMSTR	87	144	2
NMSI_	87	144	2	96	24	5
NMSTR	87	144	6
NMSI_	87	144	6	96	24	1
BRTAP	87	336	1
BRTAP	87	336	5
NMSTR	88	0	1
NMSI_	88	0	1	96	24	7
NMSTR	88	0	5
NMSI_	88	0	5	96	24	3
BRTAP	88	192	3
BRTAP	88	192	7
NMSTR	88	240	3
NMSI_	88	240	3	96	24	0
NMSTR	88	240	7
NMSI_	88	240	7	96	24	4
BRTAP	89	48	0
BRTAP	89	48	4
NMSTR	89	96	0
NMSI_	89	96	0	96	24	6
NMSTR	89	96	4
NMSI_	89	96	4	96	24	2
BRTAP	89	288	2
BRTAP	89	288	6
NMSTR	89	336	2
NMSI_	89	336	2	96	24	5
NMSTR	89	336	6
NMSI_	89	336	6	96	24	1
BRTAP	90	144	1
BRTAP	90	144	5
NMSTR	90	192	1
NMSI_	90	192	1	96	24	3
NMSTR	90	192	5
NMSI_	90	192	5	96	24	7
BRTAP	91	0	3
BRTAP	91	0	7
NMSTR	91	48	3
NMSV_	91	48	3	96	24	5
NMSTR	91	48	7
NMSV_	91	48	7	96	24	1
NMTAP	91	240	3
NMTAP	91	240	7
NMTAP	91	288	3
NMTAP	91	288	7
NMTAP	91	336	2
NMTAP	91	336	6
NMTAP	92	0	1
NMTAP	92	0	5
NMTAP	92	48	0
NMTAP	92	48	4
NMTAP	92	144	2
NMTAP	92	144	6
NMTAP	92	192	0
NMTAP	92	192	4
NMTAP	92	288	1
NMTAP	92	336	0
NMTAP	93	0	7
NMTAP	93	48	5
NMTAP	93	96	6
NMTAP	93	144	7
NMTAP	93	192	0
NMHLD	93	240	2	528
NMTAP	93	336	1
NMTAP	94	48	3
NMTAP	94	144	7
NMTAP	94	240	5
NMTAP	94	336	5
NMHLD	95	0	5	384
NMTAP	95	96	6
NMTAP	95	192	4
NMTAP	95	288	0
NMTAP	96	0	2
BRTAP	96	192	1
BRTAP	96	192	2
BRTAP	96	240	5
BRTAP	96	240	6
BRTAP	96	288	2
BRTAP	96	288	3
BRTAP	96	336	4
BRTAP	96	336	5
BRTAP	97	0	1
BRTAP	97	0	6
BRTAP	97	48	3
BRTAP	97	48	4
BRTAP	97	96	0
BRTAP	97	96	7

T_REC_TAP	317
T_REC_BRK	62
T_REC_XTP	0
T_REC_BXX	0
T_REC_HLD	26
T_REC_XHO	0
T_REC_BHO	0
T_REC_BXH	0
T_REC_STR	140
T_REC_BST	0
T_REC_XST	0
T_REC_XBS	0
T_REC_TTP	0
T_REC_THO	0
T_REC_SLD	140
T_REC_BSL	0
T_REC_ALL	685
T_NUM_TAP	457
T_NUM_BRK	62
T_NUM_HLD	26
T_NUM_SLD	140
T_NUM_ALL	685
T_JUDGE_TAP	519
T_JUDGE_HLD	109
T_JUDGE_SLD	140
T_JUDGE_ALL	768
TTM_EACHPAIRS	113
TTM_SCR_TAP	228500
TTM_SCR_BRK	161200
TTM_SCR_HLD	26000
TTM_SCR_SLD	210000
TTM_SCR_ALL	625700
TTM_SCR_S	600950
TTM_SCR_SS	619500
TTM_RAT_ACV	10100

