VERSION	0.00.00	1.03.00
FES_MODE	0
BPM_DEF	216.000	216.000	216.000	216.000
MET_DEF	4	4
RESOLUTION	384
CLK_DEF	576
COMPATIBLE_CODE	MA2

BPM	0	0	216.000
MET	0	0	4	4

TAP	3	0	4
TAP	3	0	5
TAP	3	96	3
TAP	3	96	6
TAP	3	192	2
TAP	3	192	7
STR	3	288	0
SI_	3	288	0	96	96	4
STR	3	288	1
SI_	3	288	1	96	96	5
TAP	4	192	2
TAP	4	192	3
TAP	4	288	1
TAP	4	288	4
TAP	5	0	0
TAP	5	0	5
STR	5	96	6
SI_	5	96	6	96	96	2
STR	5	96	7
SI_	5	96	7	96	96	3
TAP	6	0	1
TAP	6	96	2
HLD	6	144	3	144
TAP	6	288	4
TAP	7	0	4
TAP	7	0	5
TAP	7	96	6
TAP	7	192	5
HLD	7	240	4	144
TAP	8	0	3
TAP	8	96	2
TAP	8	96	3
TAP	8	192	1
TAP	8	288	0
HLD	8	336	7	144
TAP	9	96	5
TAP	9	192	2
TAP	9	192	6
TAP	9	288	6
TAP	10	0	7
HLD	10	48	0	144
TAP	10	192	2
TAP	10	288	1
TAP	10	288	5
HLD	11	0	2	144
HLD	11	144	4	144
TAP	11	240	5
TAP	11	288	5
TAP	12	0	6
TAP	12	0	7
HLD	12	96	5	144
HLD	12	240	3	144
TAP	12	336	2
TAP	13	0	2
TAP	13	96	0
TAP	13	96	1
HLD	13	192	0	144
HLD	13	336	6	144
TAP	14	48	4
TAP	14	96	4
TAP	14	192	3
TAP	14	192	6
HLD	14	288	7	144
HLD	15	48	1	144
TAP	15	144	3
TAP	15	192	3
TAP	15	288	1
TAP	15	288	4
TAP	16	0	1
TAP	16	96	4
TAP	16	144	3
TAP	16	192	4
TAP	16	288	5
TAP	17	0	0
TAP	17	0	7
TAP	17	96	5
TAP	17	192	3
TAP	17	240	4
TAP	17	288	3
TAP	18	0	2
TAP	18	96	0
TAP	18	96	7
TAP	18	192	1
TAP	18	288	5
TAP	18	336	3
TAP	19	0	5
TAP	19	96	6
TAP	19	192	0
TAP	19	192	7
TAP	19	288	6
TAP	20	0	2
TAP	20	48	4
TAP	20	96	2
TAP	20	192	1
TAP	20	288	0
TAP	20	288	7
TAP	21	0	1
TAP	21	96	4
TAP	21	144	3
TAP	21	192	2
TAP	21	192	5
TAP	21	288	6
TAP	22	0	0
TAP	22	0	7
TAP	22	96	6
TAP	22	192	3
TAP	22	240	4
TAP	22	288	2
TAP	22	288	5
TAP	23	0	1
TAP	23	96	0
TAP	23	96	7
TAP	23	192	7
TAP	23	288	4
TAP	23	336	5
TAP	24	0	3
TAP	24	0	6
TAP	24	96	2
TAP	24	192	4
HLD	24	288	1	288
HLD	24	288	6	288
STR	26	0	2
SCR	26	0	2	96	120	5
STR	26	192	6
SCL	26	192	6	96	144	2
STR	27	0	0
SCR	27	0	0	96	288	7
STR	28	192	5
SCL	28	192	5	96	120	2
STR	29	0	1
SCR	29	0	1	96	144	5
STR	29	192	7
SCL	29	192	7	96	288	0
STR	31	0	0
SCR	31	0	0	96	96	3
STR	31	192	4
SUL	31	192	4	96	96	7
TAP	32	0	0
STR	32	96	7
SCL	32	96	7	96	96	4
STR	32	288	3
SUR	32	288	3	96	96	0
TAP	33	96	7
TAP	33	192	5
TAP	33	288	4
TAP	34	0	3
HLD	34	96	2	192
BRK	34	288	0
TAP	36	0	1
TAP	36	96	1
TAP	36	192	1
TAP	36	240	2
TAP	36	240	7
TAP	36	336	7
TAP	37	48	7
TAP	37	96	6
TAP	37	192	6
TAP	37	288	6
TAP	37	336	3
TAP	37	336	5
TAP	38	48	3
TAP	38	144	3
TAP	38	192	2
TAP	38	288	2
TAP	39	0	2
TAP	39	48	1
TAP	39	48	4
TAP	39	144	4
TAP	39	240	4
TAP	39	288	5
TAP	40	0	5
TAP	40	96	5
BRK	40	144	2
BRK	40	144	6
TAP	41	0	2
TAP	41	0	4
TAP	41	80	3
TAP	41	80	6
TAP	41	160	7
TAP	41	240	3
TAP	41	240	5
TAP	41	320	1
TAP	41	320	4
TAP	42	16	0
TAP	42	96	1
TAP	42	96	4
TAP	42	176	3
TAP	42	176	6
TAP	42	256	7
TAP	42	336	3
TAP	42	336	6
TAP	43	32	1
TAP	43	32	4
TAP	43	112	0
TAP	43	192	1
TAP	43	192	5
TAP	43	272	2
TAP	43	272	4
TAP	43	352	3
TAP	43	352	6
TAP	44	48	2
TAP	44	48	6
TAP	44	128	3
TAP	44	128	5
TAP	44	208	1
TAP	44	208	4
TAP	44	288	0
TAP	44	288	6
TAP	44	368	1
TAP	44	368	4
TAP	45	64	3
TAP	45	64	6
TAP	45	144	1
TAP	45	144	7
TAP	45	224	3
TAP	45	224	6
TAP	45	304	1
TAP	45	304	4
STR	46	0	0
SCR	46	0	0	96	144	3
TAP	46	0	4
TAP	46	120	5
HLD	46	240	6	120
TAP	46	360	7
TAP	47	96	3
STR	47	96	7
SCL	47	96	7	96	144	4
TAP	47	216	2
HLD	47	336	1	120
TAP	48	72	0
STR	48	192	0
SI_	48	192	0	96	144	4
TAP	48	192	1
TAP	48	312	3
HLD	49	48	5	120
TAP	49	168	7
TAP	49	288	6
STR	49	288	7
SI_	49	288	7	96	144	3
TAP	50	24	4
HLD	50	144	2	120
TAP	50	264	0
STR	51	0	0
SI_	51	0	0	96	96	4
TAP	51	120	6
STR	51	240	6
SI_	51	240	6	96	96	2
TAP	51	360	1
STR	52	96	1
SI_	52	96	1	96	96	5
TAP	52	216	7
STR	52	336	7
SI_	52	336	7	96	96	3
STR	53	72	0
SI_	53	72	0	96	72	5
STR	53	192	7
SI_	53	192	7	96	72	2
STR	53	312	1
SI_	53	312	1	96	72	5
STR	54	48	6
SI_	54	48	6	96	72	2
STR	54	168	0
SI_	54	168	0	96	72	4
STR	54	288	7
SI_	54	288	7	96	72	3
STR	55	24	1
SI_	55	24	1	96	72	4
STR	55	144	6
SI_	55	144	6	96	72	3
TAP	55	264	0
BRK	56	0	1
BRK	56	0	6
BRK	56	144	2
BRK	56	144	3
BRK	56	288	4
BRK	56	288	5
TAP	57	0	0
TAP	57	0	7
TAP	57	96	1
TAP	57	96	6
TAP	57	192	2
TAP	57	192	5
STR	57	288	3
SCR	57	288	3	96	336	6
STR	57	288	4
SCL	57	288	4	96	336	1
HLD	59	96	1	96
TAP	59	192	3
TAP	59	240	4
TAP	59	336	5
TAP	60	48	4
TAP	60	48	6
HLD	60	144	6	96
TAP	60	240	4
TAP	60	288	3
TAP	61	0	2
TAP	61	96	1
TAP	61	96	3
HLD	61	192	0	96
TAP	61	288	2
TAP	61	336	3
TAP	62	48	6
TAP	62	144	5
TAP	62	144	7
HLD	62	240	7	96
TAP	62	336	5
TAP	63	0	4
TAP	63	96	1
TAP	63	192	0
TAP	63	192	2
HLD	63	288	1	96
TAP	64	0	3
HLD	64	48	4	96
TAP	64	144	5
TAP	64	240	0
TAP	64	240	6
HLD	64	336	6	96
TAP	65	48	4
HLD	65	96	3	96
TAP	65	192	2
TAP	65	288	1
TAP	65	288	7
HLD	66	0	1	96
TAP	66	96	4
HLD	66	144	5	96
TAP	66	240	6
TAP	66	336	3
TAP	66	336	7
HLD	67	48	5	96
TAP	67	144	3
HLD	67	192	2	96
TAP	67	288	1
TAP	68	0	0
TAP	68	0	4
HLD	68	96	0	96
TAP	68	192	1
HLD	68	240	1	96
TAP	68	336	2
HLD	69	0	2	96
TAP	69	96	7
HLD	69	144	7	96
TAP	69	240	6
HLD	69	288	6	96
TAP	70	0	5
TAP	70	96	5
TAP	70	192	5
HLD	70	240	5	96
TAP	70	336	4
HLD	71	0	4	96
TAP	71	96	3
HLD	71	144	3	96
TAP	71	240	2
HLD	71	288	2	816
BRK	72	0	1
BRK	72	96	0
BRK	72	192	7
STR	72	240	7
SCR	72	240	7	96	384	6
STR	75	0	0
SCL	75	0	0	96	384	1
HLD	75	0	5	480
HLD	77	96	2	192
TAP	77	240	3
HLD	77	288	4	240
HLD	78	144	5	192
TAP	78	288	6
HLD	78	336	7	240
HLD	79	192	0	192
TAP	79	336	7
HLD	80	0	6	240
HLD	80	240	4	192
TAP	81	0	3
HLD	81	48	2	240
STR	81	288	0
SUL	81	288	0	96	192	3
TAP	82	24	7
TAP	82	144	7
TAP	82	264	7
STR	83	0	7
SUR	83	0	7	96	192	4
TAP	83	120	0
TAP	83	240	0
TAP	83	360	0
STR	84	96	0
SSL	84	96	0	96	192	4
TAP	84	216	7
TAP	84	336	7
TAP	85	72	7
STR	85	192	7
SSR	85	192	7	96	192	3
TAP	85	312	0
TAP	86	48	0
TAP	86	168	0
STR	86	288	0
SI_	86	288	0	96	72	4
TAP	87	24	6
STR	87	144	6
SI_	87	144	6	96	72	2
TAP	87	264	4
STR	88	0	4
SI_	88	0	4	96	72	0
TAP	88	120	2
STR	88	240	2
SI_	88	240	2	96	72	6
TAP	88	360	0
STR	89	96	0
SI_	89	96	0	96	48	5
STR	89	216	6
SI_	89	216	6	96	48	2
STR	89	336	1
SI_	89	336	1	96	48	4
STR	90	72	7
SI_	90	72	7	96	48	3
STR	90	192	0
SI_	90	192	0	96	48	4
STR	90	312	6
SI_	90	312	6	96	48	3
STR	91	48	1
SI_	91	48	1	96	48	5
STR	91	168	7
SI_	91	168	7	96	48	2
BRK	91	288	0
BRK	92	48	7
BRK	92	192	1
BRK	92	192	6
TAP	92	288	3
TAP	92	288	7
TAP	93	0	1
TAP	93	0	5
TAP	93	96	2
TAP	93	96	6
HLD	93	192	0	1056
TAP	93	192	4
HLD	95	0	7	480
TAP	96	192	0
TAP	96	240	7
TAP	96	288	2
TAP	96	336	6
TAP	97	0	1
TAP	97	48	5
BRK	97	96	3
BRK	97	96	4

T_REC_TAP	273
T_REC_BRK	18
T_REC_XTP	0
T_REC_HLD	51
T_REC_XHO	0
T_REC_STR	50
T_REC_BST	0
T_REC_XST	0
T_REC_TTP	0
T_REC_THO	0
T_REC_SLD	50
T_REC_ALL	442
T_NUM_TAP	323
T_NUM_BRK	18
T_NUM_HLD	51
T_NUM_SLD	50
T_NUM_ALL	442
T_JUDGE_TAP	341
T_JUDGE_HLD	199
T_JUDGE_SLD	50
T_JUDGE_ALL	590
TTM_EACHPAIRS	76
TTM_SCR_TAP	161500
TTM_SCR_BRK	46800
TTM_SCR_HLD	51000
TTM_SCR_SLD	75000
TTM_SCR_ALL	334300
TTM_SCR_S	322550
TTM_SCR_SS	332500
TTM_RAT_ACV	10054

