VERSION	0.00.00	1.03.00
FES_MODE	0
BPM_DEF	216.000	216.000	216.000	216.000
MET_DEF	4	4
RESOLUTION	384
CLK_DEF	576
COMPATIBLE_CODE	MA2

BPM	0	0	216.000
MET	0	0	4	4

TAP	3	0	3
TAP	3	0	4
TAP	3	288	2
TAP	3	288	5
TAP	4	192	1
TAP	4	192	6
BRK	5	96	0
BRK	5	96	7
TAP	6	0	2
TAP	6	144	2
TAP	6	288	3
TAP	6	288	4
TAP	7	96	5
TAP	7	240	5
TAP	8	0	3
TAP	8	0	4
TAP	8	192	6
TAP	8	336	6
TAP	9	96	0
TAP	9	96	7
TAP	9	288	1
TAP	10	48	1
TAP	10	192	0
TAP	10	192	7
TAP	11	0	1
STR	11	96	0
SCL	11	96	0	96	192	6
TAP	12	96	5
STR	12	192	4
SCL	12	192	4	96	192	2
TAP	13	192	6
STR	13	288	7
SCR	13	288	7	96	192	1
TAP	14	288	2
STR	15	0	3
SCR	15	0	3	96	192	5
TAP	16	0	6
TAP	16	0	7
TAP	16	192	0
TAP	16	192	1
TAP	17	0	2
TAP	17	96	2
TAP	17	288	3
TAP	17	288	4
TAP	18	96	5
TAP	18	192	5
TAP	19	0	3
TAP	19	0	4
TAP	19	192	3
TAP	19	288	3
TAP	20	96	2
TAP	20	96	4
TAP	20	288	4
TAP	21	0	4
TAP	21	192	3
TAP	21	192	5
TAP	22	0	6
TAP	22	96	6
TAP	22	288	0
TAP	22	288	7
TAP	23	96	1
TAP	23	192	1
TAP	24	0	0
TAP	24	0	7
TAP	24	192	1
TAP	24	192	6
BRK	24	288	1
BRK	24	288	6
HLD	26	0	2	192
HLD	26	192	4	192
STR	27	0	3
SI_	27	0	3	96	288	0
HLD	28	192	6	192
HLD	29	0	0	192
STR	29	192	7
SI_	29	192	7	96	288	4
TAP	31	0	2
TAP	31	0	3
TAP	31	192	4
TAP	31	192	5
TAP	32	0	6
TAP	32	96	6
TAP	32	288	0
TAP	32	288	7
TAP	33	96	1
TAP	33	192	1
TAP	34	0	0
TAP	34	0	7
TAP	34	192	1
TAP	34	192	6
BRK	34	288	1
BRK	34	288	6
TAP	36	0	0
TAP	36	96	0
TAP	36	192	0
TAP	36	288	1
TAP	36	288	7
TAP	37	96	7
TAP	37	192	7
TAP	37	288	7
TAP	38	0	0
TAP	38	0	6
TAP	38	192	0
TAP	38	288	7
TAP	39	0	0
TAP	39	96	1
TAP	39	96	6
TAP	39	288	7
TAP	40	0	0
TAP	40	96	7
TAP	40	192	1
TAP	40	192	6
TAP	41	0	3
TAP	41	0	4
TAP	41	96	3
TAP	41	192	3
TAP	41	288	3
TAP	41	288	4
TAP	42	96	2
TAP	42	96	5
TAP	42	192	5
TAP	42	288	5
TAP	43	0	2
TAP	43	0	5
TAP	43	192	1
TAP	43	192	6
TAP	43	288	1
TAP	44	0	1
TAP	44	96	1
TAP	44	96	6
TAP	44	288	0
TAP	44	288	7
TAP	45	0	7
TAP	45	96	7
TAP	45	192	0
TAP	45	192	7
TAP	46	0	1
TAP	46	96	2
TAP	46	192	3
TAP	46	288	4
TAP	47	0	5
TAP	47	96	4
TAP	47	192	3
TAP	47	288	2
TAP	48	0	1
TAP	48	96	0
TAP	48	192	7
TAP	48	288	6
TAP	49	0	5
TAP	49	96	4
TAP	49	192	3
TAP	49	288	2
TAP	50	0	3
TAP	50	96	4
TAP	50	192	5
TAP	50	288	6
TAP	51	0	7
TAP	51	96	1
TAP	51	192	6
TAP	51	288	2
TAP	52	0	5
TAP	52	96	3
TAP	52	192	4
TAP	52	288	2
TAP	53	0	4
TAP	53	96	1
TAP	53	192	4
TAP	53	288	0
TAP	54	0	5
TAP	54	96	1
TAP	54	192	6
TAP	54	288	2
TAP	55	0	7
TAP	55	96	3
TAP	55	192	6
TAP	55	288	2
TAP	56	0	1
TAP	56	0	6
TAP	56	96	1
TAP	56	96	6
TAP	56	240	3
TAP	56	240	4
TAP	57	0	2
TAP	57	0	5
TAP	57	96	2
TAP	57	96	5
TAP	57	240	0
TAP	57	240	7
TAP	58	0	6
TAP	58	96	7
TAP	58	192	0
TAP	58	288	1
TAP	59	0	2
BRK	59	96	1
BRK	59	96	6
TAP	59	192	1
TAP	59	288	6
TAP	60	0	2
TAP	60	0	5
TAP	60	192	3
TAP	60	192	4
TAP	60	288	5
TAP	61	0	2
TAP	61	96	1
TAP	61	96	6
TAP	61	288	0
TAP	61	288	7
TAP	62	0	1
TAP	62	96	6
TAP	62	192	2
TAP	62	192	5
TAP	63	0	1
TAP	63	0	6
TAP	63	96	2
TAP	63	192	5
TAP	63	288	3
TAP	63	288	4
TAP	64	0	2
TAP	64	96	5
TAP	64	192	2
TAP	65	0	2
TAP	65	0	5
TAP	65	96	6
TAP	65	192	1
TAP	65	288	6
TAP	66	96	1
TAP	66	96	6
TAP	66	192	0
TAP	66	288	7
TAP	67	0	0
TAP	67	192	1
TAP	67	192	6
TAP	67	288	1
TAP	67	288	6
TAP	68	96	2
TAP	68	96	3
TAP	68	192	2
TAP	68	192	3
TAP	69	0	4
TAP	69	0	5
TAP	69	96	4
TAP	69	96	5
TAP	69	288	0
TAP	69	288	1
TAP	70	0	0
TAP	70	0	1
TAP	70	192	6
TAP	70	192	7
TAP	70	288	6
TAP	70	288	7
TAP	71	96	1
TAP	71	96	6
TAP	71	192	1
TAP	71	192	6
TAP	72	0	2
TAP	72	0	5
TAP	72	96	1
TAP	72	96	6
STR	72	192	0
SCR	72	192	0	96	480	3
STR	72	192	7
SCL	72	192	7	96	480	4
HLD	77	96	7	192
HLD	77	288	0	192
HLD	78	96	1	192
STR	78	288	2
SCR	78	288	2	96	192	4
HLD	79	192	5	192
HLD	80	0	6	192
HLD	80	192	7	192
STR	81	0	0
SCR	81	0	0	96	192	2
TAP	81	288	3
TAP	82	0	3
TAP	82	96	3
TAP	82	192	2
TAP	82	192	4
TAP	83	0	4
TAP	83	96	4
TAP	83	192	4
TAP	83	288	3
TAP	83	288	5
TAP	84	96	2
TAP	84	192	3
TAP	84	288	4
TAP	85	0	1
TAP	85	0	5
TAP	85	192	4
TAP	85	288	3
TAP	86	0	2
TAP	86	96	1
TAP	86	96	5
TAP	86	288	0
TAP	87	0	0
TAP	87	96	0
TAP	87	192	1
TAP	87	192	7
TAP	87	288	1
TAP	87	288	7
TAP	88	0	7
TAP	88	96	7
TAP	88	192	7
TAP	88	288	0
TAP	88	288	6
TAP	89	0	0
TAP	89	0	6
TAP	89	96	1
TAP	89	192	6
TAP	89	288	1
TAP	90	0	2
TAP	90	0	5
TAP	90	96	2
TAP	90	96	5
TAP	90	192	4
TAP	90	288	3
TAP	91	0	4
TAP	91	96	3
TAP	91	96	4
TAP	91	192	3
TAP	91	192	4
TAP	91	288	2
TAP	91	288	5
TAP	92	0	2
TAP	92	0	5
TAP	92	144	1
TAP	92	144	6
TAP	92	288	5
TAP	93	0	4
TAP	93	96	3
TAP	93	192	2
TAP	93	288	3
TAP	94	0	4
TAP	94	96	5
TAP	94	192	4
TAP	94	288	3
STR	95	0	2
SCL	95	0	2	96	384	0
STR	95	0	5
SCR	95	0	5	96	384	7
TAP	96	192	0
TAP	96	192	7
TAP	96	288	1
TAP	96	288	6
TAP	97	0	2
TAP	97	0	5
BRK	97	96	3
BRK	97	96	4

T_REC_TAP	303
T_REC_BRK	10
T_REC_XTP	0
T_REC_HLD	10
T_REC_XHO	0
T_REC_STR	12
T_REC_BST	0
T_REC_XST	0
T_REC_TTP	0
T_REC_THO	0
T_REC_SLD	12
T_REC_ALL	347
T_NUM_TAP	315
T_NUM_BRK	10
T_NUM_HLD	10
T_NUM_SLD	12
T_NUM_ALL	347
T_JUDGE_TAP	325
T_JUDGE_HLD	40
T_JUDGE_SLD	12
T_JUDGE_ALL	377
TTM_EACHPAIRS	87
TTM_SCR_TAP	157500
TTM_SCR_BRK	26000
TTM_SCR_HLD	10000
TTM_SCR_SLD	18000
TTM_SCR_ALL	211500
TTM_SCR_S	204200
TTM_SCR_SS	210500
TTM_RAT_ACV	10047

