VERSION	0.00.00	1.03.00
FES_MODE	0
BPM_DEF	216.000	216.000	216.000	216.000
MET_DEF	4	4
RESOLUTION	384
CLK_DEF	576
COMPATIBLE_CODE	MA2

BPM	0	0	216.000
MET	0	0	4	4

TAP	6	0	0
TAP	7	96	1
TAP	8	192	0
TAP	9	288	0
TAP	9	288	7
TAP	11	0	7
TAP	11	96	7
TAP	12	96	7
TAP	12	192	7
TAP	13	192	6
TAP	13	288	6
TAP	14	288	6
TAP	15	0	6
TAP	16	0	5
TAP	16	96	5
TAP	17	96	5
TAP	17	192	5
TAP	18	192	4
TAP	18	288	4
TAP	19	288	3
TAP	19	288	4
TAP	20	0	3
TAP	20	0	4
HLD	21	0	3	480
HLD	23	192	2	480
STR	26	0	1
SI_	26	0	1	96	384	6
STR	28	192	6
SI_	28	192	6	96	384	1
STR	31	0	2
SI_	31	0	2	96	384	5
STR	33	192	5
SI_	33	192	5	96	384	2
TAP	36	0	1
TAP	36	240	1
TAP	37	96	2
TAP	37	336	2
TAP	38	192	3
TAP	39	48	3
TAP	39	288	3
TAP	39	288	4
TAP	41	0	4
TAP	41	240	4
TAP	42	96	5
TAP	42	336	5
TAP	43	192	6
TAP	44	48	6
TAP	44	288	7
TAP	45	144	7
STR	46	0	7
SI_	46	0	7	96	384	4
STR	48	192	0
SI_	48	192	0	96	384	3
STR	51	0	7
SI_	51	0	7	96	384	3
STR	53	192	0
SI_	53	192	0	96	384	4
BRK	56	0	0
BRK	56	0	7
TAP	59	96	0
TAP	59	192	0
TAP	60	144	0
TAP	60	240	0
TAP	61	192	1
TAP	61	288	1
TAP	62	240	1
TAP	62	336	1
TAP	63	288	2
TAP	64	0	2
TAP	64	336	2
TAP	65	48	2
TAP	66	0	3
TAP	66	96	3
TAP	67	48	3
TAP	67	48	4
HLD	68	96	4	432
HLD	68	96	5	432
HLD	70	192	6	432
HLD	70	192	7	432
TAP	77	96	0
TAP	77	192	0
TAP	78	144	0
TAP	78	144	1
TAP	78	240	0
TAP	78	240	1
TAP	79	192	6
TAP	79	288	6
TAP	80	240	6
TAP	80	240	7
TAP	80	336	6
TAP	80	336	7
STR	81	288	0
SI_	81	288	0	96	384	3
STR	84	96	7
SI_	84	96	7	96	384	4
STR	86	288	0
SI_	86	288	0	96	384	4
STR	89	96	7
SI_	89	96	7	96	384	3
HLD	91	288	0	720
TAP	95	0	0
TAP	96	192	7
BRK	97	96	0
BRK	97	96	7

T_REC_TAP	69
T_REC_BRK	4
T_REC_XTP	0
T_REC_HLD	7
T_REC_XHO	0
T_REC_STR	12
T_REC_BST	0
T_REC_XST	0
T_REC_TTP	0
T_REC_THO	0
T_REC_SLD	12
T_REC_ALL	104
T_NUM_TAP	81
T_NUM_BRK	4
T_NUM_HLD	7
T_NUM_SLD	12
T_NUM_ALL	104
T_JUDGE_TAP	85
T_JUDGE_HLD	71
T_JUDGE_SLD	12
T_JUDGE_ALL	168
TTM_EACHPAIRS	13
TTM_SCR_TAP	40500
TTM_SCR_BRK	10400
TTM_SCR_HLD	7000
TTM_SCR_SLD	18000
TTM_SCR_ALL	75900
TTM_SCR_S	73250
TTM_SCR_SS	75500
TTM_RAT_ACV	10052

