VERSION	0.00.00	1.03.00
FES_MODE	0
BPM_DEF	180.000	180.000	180.000	180.000
MET_DEF	4	4
RESOLUTION	384
CLK_DEF	384
COMPATIBLE_CODE	MA2

BPM	0	0	180.000
MET	0	0	4	4

TAP	1	0	0
TAP	1	0	7
TAP	1	96	3
TAP	1	96	4
TAP	1	192	2
TAP	1	192	5
TAP	1	240	1
TAP	1	240	6
BRK	1	336	0
BRK	1	336	7
STR	2	0	2
SI_	2	0	2	96	48	7
STR	2	192	5
SUL	2	192	5	96	240	2
TAP	2	288	0
HLD	2	336	1	240
TAP	3	240	2
TAP	3	240	7
TAP	3	288	1
TAP	3	288	6
TAP	3	336	0
TAP	3	336	5
HLD	4	0	7	96
TAP	4	96	0
HLD	4	192	2	96
TAP	4	288	6
STR	4	336	1
SI_	4	336	1	96	48	5
STR	5	48	0
SI_	5	48	0	96	48	4
STR	5	144	7
SI_	5	144	7	96	48	3
STR	5	240	6
SI_	5	240	6	96	48	2
STR	6	0	5
SI_	6	0	5	96	48	0
STR	6	192	2
SUR	6	192	2	96	240	5
TAP	6	288	7
HLD	6	336	6	240
TAP	7	240	0
TAP	7	240	5
TAP	7	288	1
TAP	7	288	6
TAP	7	336	2
TAP	7	336	7
STR	8	0	1
SI_	8	0	1	96	48	4
TAP	8	96	1
STR	8	144	6
SI_	8	144	6	96	48	3
TAP	8	240	6
TAP	8	336	2
TAP	8	336	3
TAP	9	48	0
TAP	9	48	1
TAP	9	144	6
TAP	9	144	7
STR	9	240	4
SCL	9	240	4	96	240	1
STR	9	240	5
SCR	9	240	5	96	240	0
HLD	11	0	7	96
TAP	11	96	6
STR	11	192	0
SI_	11	192	0	96	72	4
TAP	11	240	1
TAP	11	288	2
TAP	11	336	3
TAP	12	48	4
TAP	12	48	5
STR	12	144	2
SI_	12	144	2	96	72	7
STR	12	144	3
SI_	12	144	3	96	72	6
TAP	12	240	2
TAP	12	240	3
HLD	13	0	0	96
TAP	13	96	1
STR	13	192	7
SI_	13	192	7	96	72	3
TAP	13	240	6
TAP	13	288	5
TAP	13	336	4
STR	14	48	4
SI_	14	48	4	96	72	1
STR	14	48	5
SI_	14	48	5	96	72	0
TAP	14	144	4
TAP	14	144	5
TAP	14	240	0
TAP	14	240	1
TAP	14	288	0
TAP	14	288	7
TAP	14	336	6
TAP	14	336	7
HLD	15	0	5	96
TAP	15	96	2
TAP	15	192	1
TAP	15	192	2
TAP	15	240	0
TAP	15	240	7
TAP	15	288	5
TAP	15	288	6
TAP	15	336	3
TAP	15	336	4
TAP	16	48	2
TAP	16	48	5
TAP	16	144	1
TAP	16	144	6
TAP	16	240	0
TAP	16	240	7
STR	17	0	2
SI_	17	0	2	96	72	5
STR	17	0	6
SI_	17	0	6	96	72	1
STR	17	192	3
SI_	17	192	3	96	72	0
STR	17	192	7
SI_	17	192	7	96	72	4
STR	18	0	0
SSL	18	0	0	96	144	4
HLD	19	0	2	96
TAP	19	96	1
TAP	19	144	2
TAP	19	144	3
TAP	19	240	2
TAP	19	240	3
HLD	20	0	5	96
TAP	20	96	6
TAP	20	144	4
TAP	20	144	5
TAP	20	240	4
TAP	20	240	5
STR	21	0	1
SI_	21	0	1	96	48	3
TAP	21	96	1
STR	21	144	7
SI_	21	144	7	96	48	5
TAP	21	240	7
STR	21	336	0
SI_	21	336	0	96	48	4
TAP	22	48	0
HLD	22	96	6	192
HLD	22	144	2	144
TAP	23	0	2
TAP	23	0	3
TAP	23	96	4
TAP	23	96	5
TAP	23	144	0
TAP	23	144	1
TAP	23	240	0
TAP	23	240	1
TAP	24	0	4
TAP	24	0	5
TAP	24	96	2
TAP	24	96	3
TAP	24	144	6
TAP	24	144	7
TAP	24	240	6
TAP	24	240	7
TAP	25	0	0
TAP	25	48	1
TAP	25	96	2
TAP	25	144	3
TAP	25	192	4
TAP	25	240	5
TAP	25	288	6
TAP	25	336	7
TAP	26	0	0
TAP	26	24	1
TAP	26	48	2
TAP	26	72	3
TAP	26	96	4
TAP	26	120	5
TAP	26	144	6
TAP	26	168	7
TAP	26	192	0
TAP	26	216	1
TAP	26	240	2
TAP	26	264	3
TAP	26	288	4
TAP	26	312	5
TAP	26	336	6
TAP	26	360	7
TAP	27	0	0
TAP	27	0	7
TAP	27	48	1
TAP	27	48	6
TAP	27	96	2
TAP	27	96	5
BRK	27	144	3
BRK	27	144	4
STR	27	192	3
SI_	27	192	3	96	48	7
STR	27	192	4
SI_	27	192	4	96	48	0
STR	27	288	3
SCL	27	288	3	96	144	0
STR	27	288	4
SCR	27	288	4	96	144	7
TAP	28	288	0
TAP	28	288	7
TAP	28	336	1
TAP	28	336	6
STR	29	48	0
SI_	29	48	0	96	48	3
STR	29	144	0
SI_	29	144	0	96	48	5
STR	29	240	0
SI_	29	240	0	96	48	4
STR	29	336	4
SI_	29	336	4	96	48	0
HLD	30	192	1	96
TAP	30	288	3
HLD	30	336	4	96
TAP	31	48	6
TAP	31	96	0
TAP	31	96	7
STR	31	192	1
SCL	31	192	1	96	72	6
STR	31	192	5
SCL	31	192	5	96	72	2
TAP	32	0	1
TAP	32	48	3
TAP	32	96	4
TAP	32	144	6
TAP	32	192	0
TAP	32	240	7
TAP	32	288	2
TAP	32	288	5
TAP	32	336	3
TAP	32	336	4
TAP	33	48	4
TAP	33	48	5
TAP	33	144	2
TAP	33	144	3
TAP	33	240	6
TAP	33	240	7
TAP	33	336	0
TAP	33	336	1
HLD	34	48	7	144
HLD	34	96	0	96
TAP	34	240	6
TAP	34	240	7
TAP	34	288	0
TAP	34	288	5
TAP	34	336	1
TAP	34	336	4
STR	35	0	2
SI_	35	0	2	96	48	7
TAP	35	96	2
STR	35	144	6
SI_	35	144	6	96	48	3
TAP	35	240	6
TAP	36	0	2
TAP	36	48	0
TAP	36	96	7
TAP	36	144	5
TAP	36	192	3
TAP	36	240	4
TAP	36	288	1
TAP	36	288	6
TAP	36	336	0
TAP	36	336	7
STR	37	48	7
SI_	37	48	7	96	48	4
STR	37	144	7
SI_	37	144	7	96	48	2
STR	37	240	7
SI_	37	240	7	96	48	3
STR	37	336	3
SI_	37	336	3	96	48	7
HLD	38	192	6	96
TAP	38	288	4
HLD	38	336	3	96
TAP	39	48	1
TAP	39	96	2
TAP	39	96	3
TAP	39	192	4
TAP	39	192	5
TAP	39	288	1
TAP	39	288	6
TAP	40	0	3
TAP	40	0	4
STR	40	72	0
SI_	40	72	0	96	72	3
STR	40	72	7
SI_	40	72	7	96	72	4
TAP	40	144	2
TAP	40	144	5
BRK	40	192	0
BRK	40	192	7
TAP	40	336	2
TAP	40	336	3
TAP	41	48	1
TAP	41	48	4
TAP	41	144	0
TAP	41	144	5
TAP	41	240	6
TAP	41	240	7
HLD	41	336	5	144
TAP	42	48	0
TAP	42	96	0
TAP	42	240	0
TAP	42	288	4
TAP	42	336	1
TAP	43	0	5
TAP	43	96	2
TAP	43	96	6
TAP	43	144	1
TAP	43	144	5
STR	43	240	0
SV_	43	240	0	96	240	2
STR	43	240	4
SV_	43	240	4	96	240	6
HLD	45	0	2	96
HLD	45	0	3	96
TAP	45	192	6
STR	45	288	3
SCL	45	288	3	96	576	5
HLD	45	336	4	624
TAP	48	240	0
TAP	48	240	1
TAP	48	288	2
TAP	48	288	7
TAP	48	336	3
TAP	48	336	6
HLD	49	0	4	96
HLD	49	0	5	96
TAP	49	192	1
STR	49	288	4
SCR	49	288	4	96	576	2
HLD	49	336	3	624
TAP	52	240	4
TAP	52	336	5
STR	53	0	1
SI_	53	0	1	96	48	5
HLD	53	0	6	576
STR	53	192	5
SI_	53	192	5	96	48	0
STR	54	0	0
SI_	54	0	0	96	48	4
TAP	54	192	5
TAP	54	240	7
TAP	54	336	0
HLD	55	0	1	576
STR	55	0	6
SI_	55	0	6	96	48	2
STR	55	192	2
SI_	55	192	2	96	48	7
STR	56	0	7
SI_	56	0	7	96	48	3
TAP	56	192	2
TAP	56	240	0
TAP	56	336	7
TAP	57	0	4
TAP	57	0	5
TAP	57	96	2
TAP	57	96	3
TAP	57	192	6
TAP	57	240	2
TAP	57	288	6
TAP	57	336	0
TAP	58	0	2
TAP	58	0	3
TAP	58	96	4
TAP	58	96	5
TAP	58	192	1
TAP	58	240	5
TAP	58	288	1
TAP	58	336	7
TAP	59	0	0
TAP	59	48	1
TAP	59	96	2
TAP	59	144	3
TAP	59	192	4
TAP	59	240	5
TAP	59	288	6
TAP	59	336	7
TAP	60	0	0
TAP	60	24	1
TAP	60	48	2
TAP	60	72	3
TAP	60	96	4
TAP	60	120	5
TAP	60	144	6
TAP	60	168	7
TAP	60	192	0
TAP	60	216	1
TAP	60	240	2
TAP	60	264	3
TAP	60	288	4
TAP	60	312	5
TAP	60	336	6
TAP	60	360	7
TAP	61	0	0
TAP	61	0	4
TAP	61	48	1
TAP	61	48	5
TAP	61	96	2
TAP	61	96	6
BRK	61	144	3
BRK	61	144	7
STR	61	192	2
SUL	61	192	2	96	48	6
STR	61	192	6
SUL	61	192	6	96	48	2
STR	61	288	2
SCR	61	288	2	96	144	6
STR	61	288	6
SCR	61	288	6	96	144	2
TAP	62	288	0
TAP	62	288	4
TAP	62	336	3
TAP	62	336	7
STR	63	48	0
SCR	63	48	0	96	48	3
STR	63	144	0
SCL	63	144	0	96	48	5
STR	63	240	0
SI_	63	240	0	96	48	4
STR	63	336	4
SI_	63	336	4	96	48	0
TAP	64	192	6
TAP	64	192	7
TAP	64	288	2
TAP	64	288	3
TAP	64	336	4
TAP	64	336	5
TAP	65	48	0
TAP	65	48	1
TAP	65	96	2
TAP	65	96	6
STR	65	192	0
SCR	65	192	0	96	72	3
STR	65	192	4
SCR	65	192	4	96	72	7
TAP	66	0	7
TAP	66	48	4
TAP	66	96	3
TAP	66	144	0
TAP	66	192	5
TAP	66	240	1
TAP	66	288	2
TAP	66	288	6
TAP	66	336	3
TAP	66	336	7
TAP	67	48	2
TAP	67	48	6
TAP	67	144	1
TAP	67	144	5
TAP	67	240	0
TAP	67	240	4
STR	67	336	3
SCL	67	336	3	96	144	4
TAP	68	240	2
TAP	68	288	3
TAP	68	336	4
STR	69	0	5
SI_	69	0	5	96	48	0
TAP	69	96	5
STR	69	144	4
SI_	69	144	4	96	48	1
TAP	69	240	4
TAP	70	0	2
TAP	70	48	0
TAP	70	96	7
TAP	70	144	5
TAP	70	192	0
TAP	70	192	4
TAP	70	240	1
TAP	70	240	5
TAP	70	288	2
TAP	70	288	6
TAP	70	336	3
TAP	70	336	7
STR	71	48	7
SCL	71	48	7	96	48	4
STR	71	144	7
SCR	71	144	7	96	48	2
STR	71	240	7
SI_	71	240	7	96	48	3
STR	71	336	3
SI_	71	336	3	96	48	7
HLD	72	192	5	96
TAP	72	288	4
HLD	72	336	3	96
TAP	73	48	2
TAP	73	96	3
TAP	73	96	4
TAP	73	192	2
TAP	73	192	3
TAP	73	288	4
TAP	73	288	5
TAP	74	0	1
TAP	74	0	6
STR	74	72	0
SI_	74	72	0	96	72	4
STR	74	72	7
SI_	74	72	7	96	72	3
TAP	74	144	2
TAP	74	144	5
BRK	74	192	0
BRK	74	192	7
TAP	74	336	3
TAP	74	336	4
TAP	75	48	1
TAP	75	48	6
TAP	75	144	2
TAP	75	144	5
TAP	75	240	0
TAP	75	240	7
HLD	75	336	2	96
TAP	76	48	7
TAP	76	96	0
TAP	76	96	1
TAP	76	240	6
TAP	76	288	3
TAP	76	336	5
TAP	77	0	2
TAP	77	96	1
TAP	77	96	5
TAP	77	144	2
TAP	77	144	6
STR	77	240	3
SV_	77	240	3	96	192	1
STR	77	240	7
SV_	77	240	7	96	192	5
STR	79	0	5
SI_	79	0	5	96	48	0
STR	79	192	2
SUR	79	192	2	96	240	5
TAP	79	288	7
HLD	79	336	6	240
TAP	80	240	0
TAP	80	240	5
TAP	80	288	1
TAP	80	288	6
TAP	80	336	2
TAP	80	336	7
HLD	81	0	3	96
TAP	81	96	2
HLD	81	192	4	96
TAP	81	288	5
TAP	81	336	2
TAP	82	0	1
TAP	82	0	7
TAP	82	48	0
TAP	82	48	6
TAP	82	144	3
TAP	82	144	4
TAP	82	240	0
TAP	82	240	6
TAP	82	288	1
TAP	82	288	7
STR	83	0	2
SI_	83	0	2	96	48	7
STR	83	192	5
SUL	83	192	5	96	240	2
TAP	83	288	0
HLD	83	336	1	240
TAP	84	240	2
TAP	84	240	7
TAP	84	288	1
TAP	84	288	6
TAP	84	336	0
TAP	84	336	5
STR	85	0	4
SI_	85	0	4	96	72	1
TAP	85	96	4
STR	85	144	3
SI_	85	144	3	96	72	6
TAP	85	240	3
TAP	85	336	0
TAP	85	336	7
TAP	86	48	1
TAP	86	48	6
TAP	86	144	2
TAP	86	144	5
STR	86	240	3
SCL	86	240	3	96	336	4
STR	86	240	4
SUL	86	240	4	96	336	3

T_REC_TAP	375
T_REC_BRK	10
T_REC_XTP	0
T_REC_HLD	33
T_REC_XHO	0
T_REC_STR	83
T_REC_BST	0
T_REC_XST	0
T_REC_TTP	0
T_REC_THO	0
T_REC_SLD	83
T_REC_ALL	584
T_NUM_TAP	458
T_NUM_BRK	10
T_NUM_HLD	33
T_NUM_SLD	83
T_NUM_ALL	584
T_JUDGE_TAP	468
T_JUDGE_HLD	125
T_JUDGE_SLD	83
T_JUDGE_ALL	676
TTM_EACHPAIRS	143
TTM_SCR_TAP	229000
TTM_SCR_BRK	26000
TTM_SCR_HLD	33000
TTM_SCR_SLD	124500
TTM_SCR_ALL	412500
TTM_SCR_S	399200
TTM_SCR_SS	411500
TTM_RAT_ACV	10024

