VERSION	0.00.00	1.03.00
FES_MODE	0
BPM_DEF	180.000	180.000	180.000	180.000
MET_DEF	4	4
RESOLUTION	384
CLK_DEF	384
COMPATIBLE_CODE	MA2

BPM	0	0	180.000
MET	0	0	4	4

TAP	1	0	0
TAP	1	0	1
TAP	1	96	6
TAP	1	96	7
TAP	1	192	3
TAP	1	240	4
TAP	1	336	2
TAP	1	336	5
HLD	2	0	1	96
TAP	2	96	2
HLD	2	192	6	96
TAP	2	288	5
HLD	3	0	2	96
TAP	3	96	0
HLD	3	192	5	96
TAP	3	288	7
HLD	4	0	1	288
TAP	4	96	0
TAP	4	192	7
TAP	4	288	6
TAP	5	0	1
TAP	5	48	0
TAP	5	96	2
TAP	5	144	7
TAP	5	192	3
TAP	5	240	6
TAP	5	288	4
TAP	5	336	5
HLD	6	0	2	96
TAP	6	96	3
HLD	6	192	5	96
TAP	6	288	4
STR	6	336	4
SCL	6	336	4	96	96	7
TAP	7	240	4
TAP	7	288	3
TAP	7	336	2
TAP	8	0	1
TAP	8	96	7
TAP	8	144	0
HLD	8	240	7	96
HLD	8	336	5	96
HLD	9	48	3	96
TAP	9	144	1
STR	9	240	0
SCL	9	240	0	96	192	4
BRK	9	336	0
STR	11	0	0
SI_	11	0	0	96	48	4
TAP	11	96	6
STR	11	192	7
SI_	11	192	7	96	48	3
TAP	11	288	1
STR	12	0	1
SI_	12	0	1	96	48	5
TAP	12	96	3
STR	12	192	6
SI_	12	192	6	96	48	2
TAP	12	288	4
STR	13	0	3
SI_	13	0	3	96	48	7
TAP	13	96	1
STR	13	192	4
SI_	13	192	4	96	48	0
TAP	13	288	6
HLD	13	336	6	96
TAP	14	48	7
TAP	14	240	6
TAP	14	288	5
TAP	14	336	4
TAP	15	0	0
TAP	15	48	1
TAP	15	96	2
TAP	15	144	5
TAP	15	192	4
TAP	15	240	3
TAP	15	288	1
TAP	15	336	2
TAP	16	0	3
TAP	16	48	7
TAP	16	96	6
TAP	16	144	5
TAP	16	192	2
TAP	16	240	3
TAP	16	288	4
TAP	17	0	5
TAP	17	0	6
TAP	17	192	1
TAP	17	192	2
TAP	18	0	0
TAP	18	0	7
TAP	18	96	0
TAP	18	96	7
BRK	18	144	1
BRK	18	144	6
TAP	19	0	0
TAP	19	96	0
HLD	19	144	0	96
TAP	19	240	1
TAP	20	0	7
TAP	20	96	7
HLD	20	144	7	96
TAP	20	240	6
HLD	21	0	2	96
TAP	21	96	7
HLD	21	144	5	96
TAP	21	240	0
STR	21	336	7
SCR	21	336	7	96	96	2
TAP	22	48	6
TAP	22	96	5
TAP	22	144	4
TAP	23	0	0
TAP	23	96	1
HLD	23	144	2	96
TAP	23	240	3
TAP	24	0	7
TAP	24	96	6
HLD	24	144	5	96
TAP	24	240	4
HLD	25	0	3	96
TAP	25	96	0
HLD	25	144	4	96
TAP	25	240	7
TAP	25	336	2
TAP	26	48	6
HLD	26	96	6	192
TAP	26	192	7
TAP	26	288	7
TAP	27	0	3
TAP	27	0	4
TAP	27	48	3
TAP	27	48	4
TAP	27	96	3
TAP	27	96	4
TAP	27	144	3
TAP	27	144	4
STR	27	192	3
SI_	27	192	3	96	48	0
STR	27	192	4
SI_	27	192	4	96	48	7
TAP	28	0	1
TAP	28	48	0
TAP	28	96	1
TAP	28	144	0
TAP	28	192	4
TAP	28	240	5
TAP	28	288	4
TAP	28	336	5
TAP	29	0	2
TAP	29	48	3
TAP	29	96	2
TAP	29	144	3
TAP	29	192	7
TAP	29	240	6
TAP	29	288	7
TAP	29	336	6
TAP	30	0	0
TAP	30	48	7
TAP	30	96	1
TAP	30	144	6
TAP	30	192	2
TAP	30	240	5
TAP	30	288	3
TAP	30	336	4
STR	31	0	1
SI_	31	0	1	96	48	3
STR	31	96	7
SI_	31	96	7	96	48	5
STR	31	192	0
SI_	31	192	0	96	48	4
STR	32	0	6
SCR	32	0	6	96	96	1
TAP	32	288	2
STR	32	336	2
SI_	32	336	2	96	48	7
TAP	33	48	5
STR	33	144	5
SI_	33	144	5	96	48	0
TAP	33	240	1
STR	33	336	1
SI_	33	336	1	96	48	5
TAP	34	48	7
TAP	34	96	7
TAP	34	240	0
TAP	34	288	7
TAP	34	336	0
STR	35	0	7
SI_	35	0	7	96	48	3
TAP	35	96	1
STR	35	144	1
SI_	35	144	1	96	48	5
BRK	35	240	6
TAP	36	0	6
TAP	36	48	7
TAP	36	96	6
TAP	36	144	7
TAP	36	192	3
TAP	36	240	2
TAP	36	288	3
TAP	36	336	2
TAP	37	0	5
TAP	37	48	4
TAP	37	96	5
TAP	37	144	4
TAP	37	192	0
TAP	37	240	1
TAP	37	288	0
TAP	37	336	1
TAP	38	0	7
TAP	38	48	3
TAP	38	96	6
TAP	38	144	2
TAP	38	192	5
TAP	38	240	1
TAP	38	288	4
TAP	38	336	0
STR	39	0	3
SI_	39	0	3	96	48	6
STR	39	96	7
SI_	39	96	7	96	48	2
STR	39	192	5
SI_	39	192	5	96	48	1
STR	40	0	2
SCL	40	0	2	96	96	7
TAP	40	288	5
STR	40	336	5
SI_	40	336	5	96	48	0
TAP	41	48	2
STR	41	144	2
SI_	41	144	2	96	48	7
TAP	41	240	6
STR	41	336	6
SI_	41	336	6	96	48	2
TAP	42	48	0
TAP	42	96	0
TAP	42	240	5
TAP	42	288	4
TAP	42	336	3
HLD	43	0	2	96
TAP	43	96	1
HLD	43	144	6	96
STR	43	240	5
SCR	43	240	5	96	288	4
TAP	45	0	3
TAP	45	0	4
TAP	45	192	3
TAP	45	192	4
TAP	45	288	0
TAP	45	288	7
HLD	45	336	0	240
HLD	45	336	7	240
STR	47	0	6
SUL	47	0	6	96	480	3
TAP	48	240	0
TAP	48	288	7
TAP	48	336	0
TAP	49	0	0
TAP	49	0	7
TAP	49	192	0
TAP	49	192	7
TAP	49	288	3
TAP	49	288	4
HLD	49	336	3	240
HLD	49	336	4	240
STR	51	0	1
SUR	51	0	1	96	480	4
HLD	52	240	7	96
TAP	52	336	0
HLD	53	0	0	576
TAP	53	192	1
TAP	54	0	3
TAP	54	192	5
HLD	54	240	7	96
TAP	54	336	0
HLD	55	0	0	576
TAP	55	192	6
TAP	56	0	4
TAP	56	192	2
TAP	57	0	3
TAP	57	0	4
TAP	57	96	3
TAP	57	96	4
TAP	57	192	2
TAP	57	192	3
TAP	57	288	4
TAP	57	288	5
TAP	58	0	0
TAP	58	0	7
TAP	58	96	0
TAP	58	96	7
TAP	58	192	0
TAP	58	192	1
TAP	58	288	6
TAP	58	288	7
TAP	59	0	0
TAP	59	48	0
TAP	59	96	0
TAP	59	144	0
TAP	59	192	7
TAP	59	240	7
TAP	59	288	7
TAP	59	336	7
TAP	60	0	0
TAP	60	24	7
TAP	60	48	0
TAP	60	72	7
TAP	60	96	0
TAP	60	120	7
TAP	60	144	0
TAP	60	168	7
TAP	60	192	0
TAP	60	216	7
TAP	60	240	0
TAP	60	264	7
TAP	60	288	0
TAP	60	312	7
TAP	60	336	0
TAP	60	360	7
BRK	61	0	1
BRK	61	48	1
BRK	61	96	6
BRK	61	144	6
TAP	61	192	3
TAP	61	192	4
BRK	61	288	0
BRK	61	288	7
TAP	62	0	1
TAP	62	48	0
TAP	62	96	2
TAP	62	96	7
TAP	62	144	1
TAP	62	192	5
TAP	62	240	4
TAP	62	288	3
TAP	62	288	6
TAP	62	336	5
TAP	63	0	2
TAP	63	48	3
TAP	63	96	1
TAP	63	96	4
TAP	63	144	2
TAP	63	192	6
TAP	63	240	7
TAP	63	288	0
TAP	63	288	5
TAP	63	336	6
TAP	64	0	0
TAP	64	48	0
TAP	64	96	2
TAP	64	144	2
TAP	64	192	4
TAP	64	240	4
TAP	64	288	6
TAP	64	336	6
BRK	65	0	1
TAP	65	0	2
BRK	65	96	0
TAP	65	96	2
TAP	65	192	2
BRK	65	192	7
TAP	65	288	2
BRK	65	288	6
HLD	66	0	6	288
TAP	66	288	5
STR	66	336	5
SI_	66	336	5	96	48	1
TAP	67	48	3
STR	67	144	3
SI_	67	144	3	96	48	7
TAP	67	240	1
STR	67	336	1
SI_	67	336	1	96	48	5
TAP	68	48	6
TAP	68	96	6
TAP	68	240	3
TAP	68	240	7
TAP	68	288	2
TAP	68	288	6
TAP	68	336	1
TAP	68	336	5
TAP	69	0	0
TAP	69	0	4
TAP	69	96	2
TAP	69	96	6
TAP	69	144	2
TAP	69	144	6
BRK	69	240	0
BRK	69	240	4
TAP	70	0	6
TAP	70	48	7
TAP	70	96	0
TAP	70	96	5
TAP	70	144	6
TAP	70	192	2
TAP	70	240	3
TAP	70	288	1
TAP	70	288	4
TAP	70	336	2
TAP	71	0	5
TAP	71	48	4
TAP	71	96	3
TAP	71	96	6
TAP	71	144	5
TAP	71	192	1
TAP	71	240	0
TAP	71	288	2
TAP	71	288	7
TAP	71	336	1
TAP	72	0	7
TAP	72	48	7
TAP	72	96	5
TAP	72	144	5
TAP	72	192	3
TAP	72	240	3
TAP	72	288	1
TAP	72	336	1
HLD	73	0	6	192
BRK	73	96	2
HLD	73	192	0	96
BRK	73	288	4
TAP	74	0	0
TAP	74	0	7
TAP	74	72	0
TAP	74	72	7
TAP	74	144	0
TAP	74	144	7
TAP	74	192	0
TAP	74	192	7
STR	74	336	0
SI_	74	336	0	96	48	5
STR	74	336	1
SI_	74	336	1	96	48	4
STR	75	144	6
SI_	75	144	6	96	48	3
STR	75	144	7
SI_	75	144	7	96	48	2
STR	75	336	0
SI_	75	336	0	96	48	4
STR	75	336	7
SI_	75	336	7	96	48	3
TAP	77	0	3
TAP	77	0	7
TAP	77	96	1
TAP	77	96	5
TAP	77	144	1
TAP	77	144	5
STR	77	240	3
SUL	77	240	3	96	192	6
STR	77	240	7
SUL	77	240	7	96	192	2
HLD	79	0	1	96
TAP	79	96	3
HLD	79	192	6	96
TAP	79	288	4
HLD	80	0	2	96
TAP	80	96	1
HLD	80	192	5	96
TAP	80	288	6
HLD	81	0	1	288
TAP	81	96	0
TAP	81	192	6
TAP	81	288	4
TAP	82	0	0
TAP	82	48	7
TAP	82	96	1
TAP	82	144	6
TAP	82	192	2
TAP	82	240	5
TAP	82	288	3
TAP	82	336	4
HLD	83	0	2	96
TAP	83	96	0
HLD	83	192	5	96
TAP	83	288	7
STR	83	336	7
SCL	83	336	7	96	96	4
TAP	84	240	2
TAP	84	288	3
TAP	84	336	4
TAP	85	0	5
TAP	85	96	0
TAP	85	144	7
HLD	85	240	0	96
HLD	85	336	2	96
HLD	86	48	4	96
TAP	86	144	6
STR	86	240	7
SCR	86	240	7	96	192	3
BRK	86	336	7

T_REC_TAP	342
T_REC_BRK	19
T_REC_XTP	0
T_REC_HLD	43
T_REC_XHO	0
T_REC_STR	43
T_REC_BST	0
T_REC_XST	0
T_REC_TTP	0
T_REC_THO	0
T_REC_SLD	43
T_REC_ALL	490
T_NUM_TAP	385
T_NUM_BRK	19
T_NUM_HLD	43
T_NUM_SLD	43
T_NUM_ALL	490
T_JUDGE_TAP	404
T_JUDGE_HLD	134
T_JUDGE_SLD	43
T_JUDGE_ALL	581
TTM_EACHPAIRS	61
TTM_SCR_TAP	192500
TTM_SCR_BRK	49400
TTM_SCR_HLD	43000
TTM_SCR_SLD	64500
TTM_SCR_ALL	349400
TTM_SCR_S	337100
TTM_SCR_SS	347500
TTM_RAT_ACV	10054

