VERSION	0.00.00	1.03.00
FES_MODE	0
BPM_DEF	180.000	180.000	180.000	180.000
MET_DEF	4	4
RESOLUTION	384
CLK_DEF	384
COMPATIBLE_CODE	MA2

BPM	0	0	180.000
MET	0	0	4	4

TAP	1	0	0
TAP	1	0	7
TAP	1	192	0
TAP	1	192	7
TAP	1	288	3
TAP	1	288	4
TAP	2	0	3
TAP	2	96	2
TAP	2	192	1
TAP	2	288	0
TAP	3	0	7
TAP	3	96	6
TAP	3	192	5
TAP	3	288	4
TAP	4	0	3
TAP	4	96	4
TAP	4	192	5
TAP	4	288	6
TAP	5	0	7
TAP	5	96	0
TAP	5	192	1
TAP	5	288	2
TAP	6	0	2
TAP	6	0	3
TAP	6	192	2
TAP	6	192	3
TAP	7	0	4
TAP	7	0	5
TAP	7	192	4
TAP	7	192	5
TAP	8	0	3
TAP	8	96	3
TAP	8	192	3
TAP	9	0	4
TAP	9	96	4
TAP	9	192	4
STR	10	0	3
SI_	10	0	3	96	96	0
STR	10	0	4
SI_	10	0	4	96	96	7
BRK	11	0	0
TAP	11	96	1
TAP	11	192	2
TAP	12	0	7
TAP	12	96	6
TAP	12	192	5
TAP	13	0	2
TAP	13	0	3
TAP	13	192	4
TAP	13	192	5
TAP	14	0	3
TAP	14	0	4
TAP	14	96	3
TAP	14	96	4
TAP	14	192	2
TAP	14	192	3
TAP	14	288	4
TAP	14	288	5
TAP	15	0	2
TAP	15	96	1
TAP	15	192	0
TAP	16	0	5
TAP	16	96	6
TAP	16	192	7
HLD	17	0	0	192
HLD	17	192	7	192
HLD	18	0	0	144
BRK	18	144	7
STR	19	0	0
SI_	19	0	0	96	96	6
STR	20	0	7
SI_	20	0	7	96	96	1
STR	21	0	0
SI_	21	0	0	96	96	4
STR	22	0	7
SI_	22	0	7	96	96	3
STR	23	0	1
SCR	23	0	1	96	96	3
STR	24	0	6
SCL	24	0	6	96	96	4
STR	25	0	2
SI_	25	0	2	96	96	0
STR	26	0	5
SI_	26	0	5	96	96	7
BRK	27	0	1
BRK	27	0	6
TAP	28	0	0
TAP	28	96	1
TAP	28	192	7
TAP	28	288	6
TAP	29	0	2
TAP	29	96	3
TAP	29	192	5
TAP	29	288	4
TAP	30	0	1
TAP	30	96	2
TAP	30	192	3
TAP	30	288	4
TAP	31	0	5
TAP	31	96	6
STR	31	192	7
SI_	31	192	7	96	96	3
TAP	32	0	2
TAP	32	96	2
TAP	32	192	0
TAP	32	288	0
TAP	33	0	6
TAP	33	96	6
TAP	33	192	4
TAP	33	288	4
TAP	34	0	0
TAP	34	96	2
TAP	34	192	4
TAP	34	288	6
TAP	35	0	0
TAP	35	0	7
STR	35	96	1
SI_	35	96	1	96	96	3
STR	35	96	6
SI_	35	96	6	96	96	4
TAP	36	0	0
TAP	36	96	4
TAP	36	192	1
TAP	36	288	5
TAP	37	0	2
TAP	37	96	6
TAP	37	192	3
TAP	37	288	7
TAP	38	0	3
TAP	38	96	7
TAP	38	192	1
TAP	38	288	5
TAP	39	0	0
TAP	39	0	4
TAP	39	96	1
TAP	39	96	5
TAP	39	192	2
TAP	39	192	6
TAP	39	288	3
TAP	39	288	7
HLD	40	0	0	192
HLD	40	0	7	192
HLD	41	0	4	192
HLD	41	192	3	192
TAP	42	0	5
TAP	42	96	6
TAP	42	192	7
TAP	42	288	0
TAP	43	0	1
TAP	43	96	0
TAP	43	192	7
STR	43	288	7
SCL	43	288	7	96	192	3
TAP	45	0	0
TAP	45	0	1
TAP	46	0	2
TAP	46	0	3
TAP	47	0	4
TAP	47	0	5
TAP	48	0	6
TAP	48	0	7
STR	49	0	0
SI_	49	0	0	96	96	4
STR	50	0	7
SI_	50	0	7	96	96	3
STR	51	0	1
SI_	51	0	1	96	96	4
STR	52	0	6
SI_	52	0	6	96	96	3
HLD	53	0	0	576
HLD	55	0	2	576
HLD	57	0	4	192
HLD	58	0	6	192
HLD	59	0	6	96
HLD	59	192	7	96
HLD	60	0	0	96
HLD	60	192	1	96
BRK	61	0	0
BRK	61	0	7
BRK	61	96	0
BRK	61	96	7
TAP	62	0	2
TAP	62	96	3
TAP	62	192	2
TAP	62	288	3
TAP	63	0	5
TAP	63	96	4
TAP	63	192	5
TAP	63	288	4
TAP	64	0	0
TAP	64	96	1
TAP	64	192	0
TAP	64	288	1
TAP	65	0	7
TAP	65	96	6
TAP	65	192	7
BRK	65	288	6
TAP	66	0	0
TAP	66	96	1
TAP	66	192	2
TAP	66	288	3
TAP	67	0	4
TAP	67	96	5
TAP	67	192	6
TAP	67	288	7
TAP	68	0	0
TAP	68	0	1
TAP	68	192	6
TAP	68	192	7
TAP	69	0	0
TAP	69	0	7
TAP	69	96	1
TAP	69	96	6
TAP	69	192	2
TAP	69	192	5
BRK	69	288	3
BRK	69	288	4
STR	70	0	3
SI_	70	0	3	96	96	0
STR	70	192	4
SI_	70	192	4	96	96	7
TAP	71	0	0
TAP	71	96	1
TAP	71	192	7
TAP	71	288	6
STR	72	0	0
SI_	72	0	0	96	96	4
STR	72	192	7
SI_	72	192	7	96	96	3
TAP	73	0	1
TAP	73	96	0
TAP	73	192	7
TAP	73	288	6
HLD	74	0	1	96
HLD	74	0	6	96
BRK	74	192	0
BRK	74	192	7
HLD	75	0	3	192
HLD	75	192	4	192
TAP	76	0	2
TAP	76	96	3
TAP	76	192	4
TAP	76	288	5
TAP	77	0	6
TAP	77	96	7
TAP	77	192	0
STR	77	288	1
SCL	77	288	1	96	192	5
TAP	79	0	4
TAP	79	96	5
TAP	79	192	6
TAP	79	288	7
TAP	80	0	0
TAP	80	96	1
TAP	80	192	2
TAP	80	288	3
TAP	81	0	4
TAP	81	96	3
TAP	81	192	2
TAP	81	288	1
TAP	82	0	0
TAP	82	96	7
TAP	82	192	6
TAP	82	288	5
TAP	83	0	4
TAP	83	0	5
TAP	83	192	2
TAP	83	192	3
TAP	84	0	4
TAP	84	0	5
TAP	84	192	2
TAP	84	192	3
TAP	85	0	0
TAP	85	0	1
TAP	85	96	0
TAP	85	96	1
TAP	85	192	6
TAP	85	192	7
TAP	85	288	6
TAP	85	288	7
TAP	86	0	0
TAP	86	0	7
TAP	86	96	1
TAP	86	96	6
TAP	86	192	2
TAP	86	192	5
STR	86	288	3
SI_	86	288	3	96	192	0
STR	86	288	4
SI_	86	288	4	96	192	7

T_REC_TAP	208
T_REC_BRK	13
T_REC_XTP	0
T_REC_HLD	19
T_REC_XHO	0
T_REC_STR	25
T_REC_BST	0
T_REC_XST	0
T_REC_TTP	0
T_REC_THO	0
T_REC_SLD	25
T_REC_ALL	290
T_NUM_TAP	233
T_NUM_BRK	13
T_NUM_HLD	19
T_NUM_SLD	25
T_NUM_ALL	290
T_JUDGE_TAP	246
T_JUDGE_HLD	79
T_JUDGE_SLD	25
T_JUDGE_ALL	350
TTM_EACHPAIRS	48
TTM_SCR_TAP	116500
TTM_SCR_BRK	33800
TTM_SCR_HLD	19000
TTM_SCR_SLD	37500
TTM_SCR_ALL	206800
TTM_SCR_S	199350
TTM_SCR_SS	205500
TTM_RAT_ACV	10063

