VERSION	0.00.00	1.03.00
FES_MODE	0
BPM_DEF	180.000	180.000	180.000	180.000
MET_DEF	4	4
RESOLUTION	384
CLK_DEF	384
COMPATIBLE_CODE	MA2

BPM	0	0	180.000
MET	0	0	4	4

TAP	2	0	0
TAP	2	192	0
HLD	3	0	1	192
TAP	4	0	7
TAP	4	192	7
HLD	5	0	6	192
TAP	6	0	0
TAP	6	192	0
HLD	7	0	1	192
TAP	8	0	2
TAP	8	192	3
TAP	9	0	4
TAP	9	192	5
BRK	10	0	6
TAP	11	0	7
TAP	11	192	7
TAP	12	0	6
TAP	12	192	6
TAP	13	0	5
TAP	13	192	5
HLD	14	0	4	192
TAP	15	0	3
TAP	15	192	3
TAP	16	0	2
TAP	16	192	2
TAP	17	0	0
TAP	17	0	1
TAP	17	192	0
TAP	17	192	1
BRK	18	0	0
BRK	18	0	1
TAP	19	0	0
TAP	19	192	0
TAP	20	0	6
TAP	20	192	6
TAP	21	0	4
TAP	21	192	4
TAP	22	0	2
TAP	22	0	3
TAP	23	0	7
TAP	23	192	7
TAP	24	0	1
TAP	24	192	1
TAP	25	0	3
TAP	25	192	3
STR	26	0	4
SI_	26	0	4	96	288	7
TAP	28	0	0
TAP	28	96	0
TAP	29	0	1
TAP	29	96	1
TAP	30	0	2
TAP	30	96	2
TAP	31	0	3
TAP	31	0	4
TAP	31	192	3
TAP	31	192	4
TAP	32	0	4
TAP	32	96	4
TAP	33	0	5
TAP	33	96	5
TAP	34	0	6
TAP	34	96	6
HLD	35	0	0	192
HLD	35	0	7	192
TAP	36	0	7
TAP	36	96	7
TAP	37	0	6
TAP	37	96	6
TAP	38	0	5
TAP	38	96	5
TAP	39	0	3
TAP	39	0	4
TAP	39	192	3
TAP	39	192	4
TAP	40	0	3
TAP	40	96	3
TAP	41	0	2
TAP	41	96	2
TAP	42	0	1
TAP	42	96	1
TAP	43	0	0
TAP	43	0	7
TAP	43	192	0
TAP	43	192	7
TAP	44	0	1
TAP	44	0	6
TAP	45	0	2
TAP	45	0	3
TAP	46	0	4
TAP	46	0	5
TAP	47	0	2
TAP	47	0	3
TAP	48	0	4
TAP	48	0	5
TAP	49	0	6
TAP	49	0	7
TAP	50	0	0
TAP	50	0	1
TAP	51	0	6
TAP	51	0	7
TAP	52	0	0
TAP	52	0	1
STR	53	0	0
SI_	53	0	0	96	288	4
STR	55	0	7
SI_	55	0	7	96	288	3
TAP	57	0	2
TAP	57	192	2
TAP	58	0	3
TAP	58	192	3
STR	59	0	4
SI_	59	0	4	96	288	7
BRK	61	0	0
TAP	62	0	7
TAP	62	96	7
TAP	62	192	7
TAP	63	0	6
TAP	63	192	6
TAP	64	0	5
TAP	64	96	5
TAP	64	192	5
TAP	65	0	3
TAP	65	0	4
TAP	65	192	3
TAP	65	192	4
TAP	66	0	3
TAP	66	96	3
TAP	66	192	3
TAP	67	0	2
TAP	67	192	2
TAP	68	0	1
TAP	68	96	1
TAP	68	192	1
HLD	69	0	0	192
HLD	69	0	7	192
TAP	70	0	0
TAP	70	96	0
TAP	70	192	0
TAP	71	0	1
TAP	71	192	1
TAP	72	0	2
TAP	72	96	2
TAP	72	192	2
TAP	73	0	3
TAP	73	0	4
TAP	73	192	3
TAP	73	192	4
TAP	74	0	4
TAP	74	96	4
TAP	74	192	4
TAP	75	0	5
TAP	75	192	5
TAP	76	0	6
TAP	76	96	6
TAP	76	192	6
TAP	77	0	0
TAP	77	0	7
TAP	77	192	0
TAP	77	192	7
BRK	78	0	1
BRK	78	0	6
TAP	79	0	7
TAP	79	192	7
HLD	80	0	6	192
TAP	81	0	0
TAP	81	192	0
HLD	82	0	1	192
TAP	83	0	7
TAP	83	192	7
HLD	84	0	6	192
TAP	85	0	5
TAP	85	192	4
TAP	86	0	3
TAP	86	192	2
STR	87	0	1
SI_	87	0	1	96	288	5

T_REC_TAP	150
T_REC_BRK	6
T_REC_XTP	0
T_REC_HLD	11
T_REC_XHO	0
T_REC_STR	5
T_REC_BST	0
T_REC_XST	0
T_REC_TTP	0
T_REC_THO	0
T_REC_SLD	5
T_REC_ALL	177
T_NUM_TAP	155
T_NUM_BRK	6
T_NUM_HLD	11
T_NUM_SLD	5
T_NUM_ALL	177
T_JUDGE_TAP	161
T_JUDGE_HLD	44
T_JUDGE_SLD	5
T_JUDGE_ALL	210
TTM_EACHPAIRS	28
TTM_SCR_TAP	77500
TTM_SCR_BRK	15600
TTM_SCR_HLD	11000
TTM_SCR_SLD	7500
TTM_SCR_ALL	111600
TTM_SCR_S	107700
TTM_SCR_SS	111000
TTM_RAT_ACV	10054

