VERSION	0.00.00	1.03.00
FES_MODE	0
BPM_DEF	158.000	158.000	158.000	158.000
MET_DEF	4	4
RESOLUTION	384
CLK_DEF	384
COMPATIBLE_CODE	MA2

BPM	0	0	158.000
MET	0	0	4	4

HLD	1	0	2	2976
HLD	1	0	4	2976
STR	9	0	3
SUL	9	0	3	96	144	6
STR	9	0	7
SUL	9	0	7	96	144	2
STR	10	0	2
SUR	10	0	2	96	144	6
STR	10	0	6
SUR	10	0	6	96	144	2
STR	11	0	2
SCR	11	0	2	96	144	5
STR	11	0	6
SCR	11	0	6	96	144	1
STR	12	0	1
SUL	12	0	1	96	144	4
STR	12	0	5
SUL	12	0	5	96	144	0
STR	13	0	0
SSL	13	0	0	96	144	4
STR	13	0	4
SCR	13	0	4	96	144	0
STR	14	0	0
SUL	14	0	0	96	144	5
STR	14	0	4
SCL	14	0	4	96	144	1
STR	15	0	1
SUR	15	0	1	96	144	6
STR	15	0	5
SUR	15	0	5	96	144	2
STR	16	0	2
SSL	16	0	2	96	144	6
STR	16	0	6
SCL	16	0	6	96	144	2
STR	17	0	2
SV_	17	0	2	96	144	0
STR	17	0	6
SV_	17	0	6	96	144	4
STR	18	0	0
SUL	18	0	0	96	144	3
STR	18	0	4
SCR	18	0	4	96	144	7
STR	19	0	3
SCL	19	0	3	96	144	0
STR	19	0	7
SUR	19	0	7	96	144	4
STR	20	0	0
SV_	20	0	0	96	144	2
STR	20	0	4
SV_	20	0	4	96	144	6
STR	21	0	0
SUR	21	0	0	96	48	4
STR	21	0	4
SUR	21	0	4	96	48	0
STR	21	192	0
SI_	21	192	0	96	48	5
STR	21	192	4
SI_	21	192	4	96	48	1
STR	22	0	1
SCL	22	0	1	96	48	6
STR	22	0	5
SCL	22	0	5	96	48	2
STR	22	192	2
SUR	22	192	2	96	48	6
STR	22	192	6
SUR	22	192	6	96	48	2
STR	23	0	6
SI_	23	0	6	96	48	2
STR	23	96	2
SI_	23	96	2	96	48	6
STR	23	192	6
SCL	23	192	6	96	72	0
TAP	24	0	7
BRK	24	72	7
TAP	24	144	0
TAP	24	168	6
STR	24	192	0
SI_	24	192	0	96	48	4
STR	24	240	7
SI_	24	240	7	96	48	3
TAP	24	288	0
TAP	24	336	7
STR	25	0	1
SCR	25	0	1	96	48	4
TAP	25	144	6
TAP	25	168	4
STR	25	192	6
SCL	25	192	6	96	48	3
TAP	25	336	1
TAP	25	360	3
TAP	26	0	1
TAP	26	48	2
TAP	26	48	5
STR	26	144	0
SI_	26	144	0	96	48	3
STR	26	144	4
SI_	26	144	4	96	48	7
TAP	26	168	1
TAP	26	168	5
TAP	26	192	2
TAP	26	192	6
TAP	26	336	6
TAP	26	360	1
STR	27	0	6
SCL	27	0	6	96	48	3
TAP	27	144	1
TAP	27	168	3
STR	27	192	1
SCR	27	192	1	96	48	4
STR	27	288	6
SI_	27	288	6	96	48	2
TAP	27	360	6
TAP	28	0	6
TAP	28	48	0
STR	28	144	3
SI_	28	144	3	96	48	0
STR	28	144	7
SI_	28	144	7	96	48	4
TAP	28	168	2
TAP	28	168	6
TAP	28	192	1
TAP	28	192	5
STR	29	0	0
SSL	29	0	0	96	48	4
TAP	29	144	7
TAP	29	168	6
STR	29	192	5
SSR	29	192	5	96	48	1
TAP	29	336	0
TAP	29	360	7
TAP	30	0	6
TAP	30	48	0
TAP	30	48	7
STR	30	144	0
SI_	30	144	0	96	48	4
STR	30	144	7
SI_	30	144	7	96	48	3
TAP	30	168	1
TAP	30	168	6
TAP	30	192	2
TAP	30	192	5
TAP	31	0	0
TAP	31	48	1
TAP	31	48	7
TAP	31	72	0
TAP	31	144	3
TAP	31	144	4
TAP	31	192	7
TAP	31	240	0
TAP	31	240	6
TAP	31	264	7
TAP	31	336	3
TAP	31	336	4
TAP	32	0	1
TAP	32	0	6
TAP	32	48	0
TAP	32	48	7
TAP	32	72	0
TAP	32	72	7
TAP	32	144	2
TAP	32	144	5
TAP	32	192	6
TAP	32	216	4
TAP	32	240	1
TAP	32	264	3
TAP	32	288	6
TAP	32	312	4
TAP	32	336	1
TAP	32	360	3
STR	33	0	7
SI_	33	0	7	96	48	2
STR	33	96	2
SI_	33	96	2	96	48	5
TAP	33	96	7
TAP	33	192	2
STR	33	192	6
SI_	33	192	6	96	48	2
TAP	33	288	6
STR	34	0	6
SI_	34	0	6	96	48	3
STR	34	96	3
SI_	34	96	3	96	48	7
TAP	34	96	6
STR	34	192	1
SI_	34	192	1	96	48	4
TAP	34	192	3
TAP	34	288	1
STR	35	0	7
SCL	35	0	7	96	96	4
TAP	35	48	7
STR	35	96	4
SSL	35	96	4	96	96	0
TAP	35	144	4
STR	35	192	0
SCR	35	192	0	96	96	3
TAP	35	240	0
STR	35	288	3
SSR	35	288	3	96	96	7
TAP	35	336	3
STR	36	0	7
SCL	36	0	7	96	96	4
TAP	36	48	7
STR	36	96	4
SI_	36	96	4	96	96	1
TAP	36	144	4
STR	36	192	1
SUL	36	192	1	96	96	6
TAP	36	240	1
BRK	37	0	0
TAP	37	96	2
TAP	37	120	3
TAP	37	144	2
TAP	37	168	5
TAP	37	192	4
TAP	37	216	5
TAP	37	240	3
TAP	37	264	4
TAP	37	288	3
TAP	37	336	5
TAP	37	360	2
TAP	38	0	0
TAP	38	0	1
TAP	38	72	4
TAP	38	72	5
TAP	38	144	0
TAP	38	144	1
TAP	38	192	2
TAP	38	192	3
TAP	38	264	6
TAP	38	264	7
TAP	38	336	3
TAP	38	336	4
STR	39	0	7
SSR	39	0	7	96	72	3
TAP	39	96	1
TAP	39	168	1
STR	39	192	1
SSL	39	192	1	96	72	5
TAP	39	288	4
TAP	39	336	4
STR	40	0	6
SUL	40	0	6	96	48	1
TAP	40	48	4
TAP	40	96	2
STR	40	192	2
SUL	40	192	2	96	48	5
TAP	40	240	1
TAP	40	288	0
TAP	40	336	7
TAP	41	0	5
TAP	41	16	4
TAP	41	32	3
TAP	41	48	2
TAP	41	64	1
TAP	41	80	0
TAP	41	96	7
TAP	41	112	6
TAP	41	144	4
TAP	41	192	3
TAP	41	288	7
TAP	42	0	0
TAP	42	24	7
TAP	42	48	0
TAP	42	72	7
TAP	42	96	0
TAP	42	120	6
TAP	42	144	0
TAP	42	168	7
TAP	42	192	1
TAP	42	216	7
TAP	42	240	0
TAP	42	264	6
TAP	42	288	1
TAP	42	312	7
TAP	42	336	0
TAP	42	360	6
TAP	43	0	0
TAP	43	24	7
TAP	43	48	2
TAP	43	72	7
BRK	43	96	0
TAP	43	120	7
TAP	43	144	2
TAP	43	168	7
BRK	43	192	0
TAP	43	216	7
TAP	43	240	2
TAP	43	264	7
BRK	43	288	0
TAP	43	312	7
TAP	43	336	2
TAP	43	360	7
BRK	44	0	0
TAP	44	24	6
TAP	44	48	0
TAP	44	72	6
TAP	44	96	4
TAP	44	120	6
TAP	44	144	4
TAP	44	168	6
TAP	44	192	4
TAP	44	216	2
TAP	44	240	4
TAP	44	264	2
TAP	44	288	4
TAP	44	312	6
TAP	44	336	4
TAP	44	360	6
TAP	45	0	1
TAP	45	24	5
TAP	45	48	3
TAP	45	72	5
BRK	45	96	1
TAP	45	120	5
TAP	45	144	3
TAP	45	168	5
BRK	45	192	1
TAP	45	216	5
TAP	45	240	3
TAP	45	264	5
BRK	45	288	1
TAP	45	312	5
TAP	45	336	3
TAP	45	360	5
BRK	46	0	1
TAP	46	24	7
TAP	46	48	1
TAP	46	72	7
TAP	46	96	1
TAP	46	120	3
TAP	46	144	1
TAP	46	168	3
TAP	46	192	5
TAP	46	216	3
TAP	46	240	5
TAP	46	264	3
TAP	46	288	1
TAP	46	312	3
TAP	46	336	1
TAP	46	360	3
TAP	47	0	2
TAP	47	24	6
TAP	47	48	1
TAP	47	72	5
TAP	47	96	0
TAP	47	120	4
TAP	47	144	7
TAP	47	168	3
TAP	47	192	6
TAP	47	216	2
TAP	47	240	7
TAP	47	264	3
TAP	47	288	0
TAP	47	312	4
TAP	47	336	1
TAP	47	360	5
TAP	48	0	1
TAP	48	24	0
TAP	48	48	2
TAP	48	72	7
TAP	48	96	3
TAP	48	120	6
TAP	48	144	4
TAP	48	168	5
TAP	48	192	2
TAP	48	216	3
TAP	48	240	1
TAP	48	264	4
TAP	48	288	0
TAP	48	312	5
TAP	48	336	7
TAP	48	360	6
TAP	49	0	0
TAP	49	24	4
TAP	49	48	2
TAP	49	72	6
TAP	49	96	1
TAP	49	120	5
TAP	49	144	3
TAP	49	168	7
TAP	49	192	2
TAP	49	216	6
TAP	49	240	0
TAP	49	264	4
TAP	49	288	3
TAP	49	312	7
TAP	49	336	1
TAP	49	360	5
BRK	50	0	1
TAP	50	24	0
TAP	50	48	1
TAP	50	72	2
TAP	50	96	1
TAP	50	144	6
TAP	50	168	7
TAP	50	192	6
TAP	50	216	5
TAP	50	240	6
TAP	50	264	0
TAP	50	288	7
TAP	50	312	1
TAP	50	360	6
TAP	51	0	1
TAP	51	24	3
TAP	51	48	2
TAP	51	72	6
TAP	51	96	0
TAP	51	144	6
TAP	51	168	4
TAP	51	192	5
TAP	51	216	1
TAP	51	240	7
TAP	51	288	0
TAP	51	312	4
TAP	51	360	3
TAP	52	0	6
TAP	52	24	4
TAP	52	48	6
TAP	52	72	4
TAP	52	96	6
TAP	52	120	0
TAP	52	144	6
TAP	52	168	0
TAP	52	192	4
TAP	52	216	0
TAP	52	240	4
TAP	52	264	0
TAP	52	288	4
TAP	52	312	2
TAP	52	336	4
TAP	52	360	2
TAP	53	0	5
TAP	53	24	0
TAP	53	48	3
TAP	53	72	7
TAP	53	96	4
TAP	53	144	1
TAP	53	168	6
TAP	53	192	2
TAP	53	216	7
TAP	53	240	0
TAP	53	264	4
TAP	53	288	3
TAP	53	312	7
TAP	53	336	1
TAP	53	360	5
TAP	54	0	2
TAP	54	24	6
TAP	54	48	1
TAP	54	72	5
TAP	54	96	2
TAP	54	144	7
TAP	54	168	3
TAP	54	192	4
TAP	54	216	0
TAP	54	240	7
TAP	54	264	3
TAP	54	288	4
TAP	54	312	0
TAP	54	336	7
TAP	54	360	3
TAP	55	0	6
TAP	55	24	2
TAP	55	48	5
TAP	55	72	1
TAP	55	96	6
TAP	55	144	0
TAP	55	168	4
TAP	55	192	2
TAP	55	216	6
TAP	55	240	1
TAP	55	264	5
TAP	55	288	3
TAP	55	312	7
TAP	55	336	0
TAP	55	360	4
STR	56	0	3
SCL	56	0	3	96	576	4
TAP	58	0	4
TAP	58	48	1
TAP	58	72	2
TAP	58	96	1
TAP	58	144	6
TAP	58	168	5
TAP	58	192	6
TAP	58	240	1
TAP	58	264	0
TAP	58	288	1
TAP	58	336	6
TAP	58	360	7
TAP	59	0	6
TAP	59	24	0
TAP	59	48	7
TAP	59	72	0
TAP	59	96	7
TAP	59	120	0
TAP	59	144	7
TAP	59	168	0
TAP	59	192	0
TAP	59	192	7
TAP	59	216	0
TAP	59	216	7
TAP	59	240	0
TAP	59	240	7
TAP	59	264	0
TAP	59	264	7
TAP	59	288	0
TAP	59	288	7
TAP	59	312	0
TAP	59	312	7
TAP	59	336	1
TAP	59	336	6
TAP	59	360	2
TAP	59	360	5
BRK	60	0	3
BRK	60	0	4
TAP	60	144	7
STR	60	168	6
SUL	60	168	6	96	48	1
TAP	60	192	5
TAP	60	264	4
TAP	60	336	4
STR	61	0	3
SI_	61	0	3	96	48	0
TAP	61	72	3
TAP	61	96	3
TAP	61	192	7
TAP	61	216	6
TAP	61	240	5
TAP	61	264	4
STR	61	288	0
SCL	61	288	0	96	48	4
TAP	61	312	1
TAP	61	336	2
TAP	61	360	3
TAP	62	144	7
TAP	62	168	0
STR	62	192	1
SUR	62	192	1	96	48	7
STR	62	240	5
SUR	62	240	5	96	48	3
TAP	63	0	0
TAP	63	72	7
TAP	63	96	0
TAP	63	192	5
TAP	63	216	3
TAP	63	240	4
TAP	63	264	2
TAP	63	288	7
TAP	63	312	6
TAP	63	336	5
TAP	63	360	4
TAP	64	0	0
TAP	64	24	1
TAP	64	48	2
TAP	64	72	3
TAP	64	96	7
TAP	64	120	6
TAP	64	144	5
TAP	64	168	4
TAP	64	192	1
TAP	64	216	2
TAP	64	240	3
TAP	64	264	4
TAP	64	288	6
TAP	64	312	5
TAP	64	336	4
TAP	64	360	3
TAP	65	0	7
TAP	65	24	0
TAP	65	48	1
TAP	65	72	2
TAP	65	96	1
TAP	65	120	0
TAP	65	144	7
TAP	65	168	6
TAP	65	192	7
TAP	65	216	6
TAP	65	240	5
TAP	65	264	4
STR	65	288	0
SCL	65	288	0	96	48	5
TAP	65	312	1
TAP	65	336	2
TAP	65	360	3
BRK	66	0	4
TAP	66	144	0
TAP	66	168	7
TAP	66	192	1
TAP	66	264	3
TAP	66	264	4
TAP	66	336	1
TAP	66	336	6
TAP	67	0	2
TAP	67	0	3
TAP	67	72	4
TAP	67	72	5
TAP	67	144	0
TAP	67	144	1
TAP	67	216	6
TAP	67	216	7
TAP	67	288	0
TAP	67	288	7
TAP	67	336	2
TAP	67	336	5
BRK	68	0	1
TAP	68	144	5
TAP	68	168	4
HLD	68	192	6	72
HLD	68	264	2	72
TAP	68	336	7
STR	69	0	0
SI_	69	0	0	96	48	4
TAP	69	72	0
STR	69	96	7
SI_	69	96	7	96	48	3
TAP	69	168	0
STR	69	192	1
SI_	69	192	1	96	48	4
TAP	69	264	1
STR	69	288	6
SI_	69	288	6	96	48	3
TAP	69	360	6
BRK	70	0	1
TAP	70	96	4
TAP	70	120	3
TAP	70	144	4
TAP	70	168	3
HLD	70	192	4	72
HLD	70	264	1	72
TAP	70	336	7
TAP	71	0	0
TAP	71	72	6
STR	71	96	6
SCL	71	96	6	96	48	3
TAP	71	192	7
TAP	71	216	0
TAP	71	240	1
TAP	71	264	2
TAP	71	288	3
TAP	71	312	4
TAP	71	336	5
TAP	71	360	6
TAP	72	0	7
TAP	72	72	0
TAP	72	72	1
TAP	72	96	0
TAP	72	96	1
TAP	72	168	4
TAP	72	168	5
TAP	72	192	4
TAP	72	192	5
TAP	72	264	2
TAP	72	264	3
TAP	72	288	2
TAP	72	288	3
TAP	72	360	6
TAP	72	360	7
TAP	73	0	6
TAP	73	0	7
TAP	73	16	0
TAP	73	32	1
TAP	73	48	6
TAP	73	64	5
TAP	73	80	4
TAP	73	96	0
TAP	73	112	1
TAP	73	128	2
TAP	73	144	7
TAP	73	160	6
TAP	73	176	5
TAP	73	192	1
TAP	73	208	2
TAP	73	224	3
TAP	73	240	6
TAP	73	256	5
TAP	73	272	4
TAP	73	288	2
TAP	73	304	3
TAP	73	320	4
TAP	73	336	5
TAP	73	352	4
TAP	73	368	3
TAP	74	0	0
TAP	74	24	7
TAP	74	48	1
TAP	74	72	6
TAP	74	96	0
TAP	74	144	7
TAP	74	168	5
TAP	74	192	7
TAP	74	240	0
TAP	74	264	2
TAP	74	288	0
TAP	74	336	6
TAP	74	360	4
TAP	75	0	6
TAP	75	48	1
TAP	75	72	3
TAP	75	96	1
TAP	75	144	4
TAP	75	168	3
TAP	75	192	4
TAP	75	216	3
TAP	75	240	4
TAP	75	264	2
TAP	75	288	5
TAP	75	312	3
TAP	75	336	4
TAP	75	360	3
TAP	76	0	4
TAP	76	24	5
TAP	76	48	6
TAP	76	72	7
TAP	76	96	0
TAP	76	120	1
TAP	76	144	2
TAP	76	168	3
TAP	76	192	4
TAP	76	204	5
TAP	76	216	6
TAP	76	228	7
TAP	76	240	0
TAP	76	252	1
TAP	76	264	2
TAP	76	276	3
STR	76	288	4
SUL	76	288	4	96	192	1
TAP	76	300	5
TAP	76	312	6
TAP	76	324	7
TAP	76	336	0
TAP	76	348	1
TAP	76	360	2
TAP	76	372	3

T_REC_TAP	553
T_REC_BRK	16
T_REC_XTP	0
T_REC_HLD	6
T_REC_XHO	0
T_REC_STR	80
T_REC_BST	0
T_REC_XST	0
T_REC_TTP	0
T_REC_THO	0
T_REC_SLD	80
T_REC_ALL	735
T_NUM_TAP	633
T_NUM_BRK	16
T_NUM_HLD	6
T_NUM_SLD	80
T_NUM_ALL	735
T_JUDGE_TAP	649
T_JUDGE_HLD	132
T_JUDGE_SLD	80
T_JUDGE_ALL	861
TTM_EACHPAIRS	71
TTM_SCR_TAP	316500
TTM_SCR_BRK	41600
TTM_SCR_HLD	6000
TTM_SCR_SLD	120000
TTM_SCR_ALL	484100
TTM_SCR_S	468050
TTM_SCR_SS	482500
TTM_RAT_ACV	10033

