VERSION	0.00.00	1.03.00
FES_MODE	0
BPM_DEF	158.000	158.000	158.000	158.000
MET_DEF	4	4
RESOLUTION	384
CLK_DEF	384
COMPATIBLE_CODE	MA2

BPM	0	0	158.000
MET	0	0	4	4

HLD	1	0	4	2976
STR	9	0	0
SUL	9	0	0	96	192	3
HLD	9	0	1	672
STR	10	0	3
SUL	10	0	3	96	192	6
STR	11	0	0
SUR	11	0	0	96	192	5
HLD	11	0	6	672
STR	12	0	5
SUR	12	0	5	96	192	2
HLD	13	0	2	288
STR	13	0	6
SUR	13	0	6	96	192	4
STR	14	0	2
SUR	14	0	2	96	192	0
HLD	14	0	4	288
HLD	15	0	0	288
STR	15	0	4
SUR	15	0	4	96	192	6
STR	16	0	0
SUR	16	0	0	96	192	1
HLD	16	0	6	288
STR	17	0	1
SI_	17	0	1	96	48	4
TAP	17	0	6
TAP	17	96	6
STR	17	192	4
SI_	17	192	4	96	48	0
TAP	17	192	6
TAP	17	288	6
STR	18	0	0
SI_	18	0	0	96	48	5
TAP	18	0	6
TAP	18	96	6
STR	18	192	5
SI_	18	192	5	96	48	1
TAP	18	192	6
TAP	18	288	6
TAP	19	0	1
STR	19	0	6
SI_	19	0	6	96	48	3
TAP	19	96	1
TAP	19	192	1
STR	19	192	3
SI_	19	192	3	96	48	7
TAP	19	288	1
TAP	20	0	1
STR	20	0	7
SI_	20	0	7	96	48	2
TAP	20	96	1
TAP	20	192	1
STR	20	192	2
SI_	20	192	2	96	48	6
TAP	20	288	1
STR	21	0	1
SI_	21	0	1	96	48	5
TAP	21	0	6
TAP	21	96	6
STR	21	192	5
SI_	21	192	5	96	48	0
TAP	21	192	6
TAP	21	288	6
TAP	22	0	0
STR	22	0	6
SI_	22	0	6	96	48	2
TAP	22	96	0
TAP	22	192	0
STR	22	192	2
SI_	22	192	2	96	48	7
TAP	22	288	0
STR	23	0	0
SI_	23	0	0	96	48	4
TAP	23	0	7
STR	23	96	7
SI_	23	96	7	96	48	3
STR	23	192	1
SI_	23	192	1	96	48	4
TAP	23	288	6
BRK	24	0	1
BRK	24	0	4
BRK	24	72	3
BRK	24	72	6
TAP	24	144	5
TAP	24	168	4
TAP	24	192	5
TAP	24	240	2
TAP	24	288	3
TAP	24	336	2
TAP	25	0	3
TAP	25	0	5
HLD	25	144	2	144
STR	25	144	7
SI_	25	144	7	96	48	3
TAP	25	336	2
TAP	25	360	4
TAP	26	0	2
TAP	26	48	3
TAP	26	144	5
TAP	26	168	3
TAP	26	192	5
TAP	26	336	1
TAP	26	360	0
STR	27	0	1
SI_	27	0	1	96	48	4
STR	27	192	6
SI_	27	192	6	96	48	3
TAP	27	336	0
TAP	28	0	6
TAP	28	48	1
TAP	28	144	7
TAP	28	168	0
TAP	28	192	7
BRK	28	288	0
BRK	28	288	6
TAP	29	0	2
TAP	29	0	4
STR	29	144	0
SI_	29	144	0	96	48	4
HLD	29	144	5	144
TAP	29	336	5
TAP	29	360	3
TAP	30	0	5
TAP	30	48	4
TAP	30	144	2
TAP	30	168	4
TAP	30	192	2
TAP	30	288	6
TAP	31	0	0
TAP	31	48	0
TAP	31	72	7
BRK	31	96	1
TAP	31	192	7
TAP	31	240	7
TAP	31	264	0
BRK	31	288	6
TAP	32	0	0
TAP	32	24	7
TAP	32	48	0
TAP	32	72	7
STR	32	96	1
SI_	32	96	1	96	48	4
STR	32	144	6
SI_	32	144	6	96	48	3
TAP	33	0	4
TAP	33	0	5
TAP	33	144	2
TAP	33	168	3
TAP	33	192	2
TAP	33	336	5
TAP	33	360	3
TAP	34	0	5
TAP	34	48	2
TAP	34	72	4
TAP	34	96	2
TAP	34	144	5
TAP	34	168	4
TAP	34	192	5
TAP	34	336	2
TAP	34	360	3
STR	35	0	2
SI_	35	0	2	96	48	7
STR	35	192	5
SI_	35	192	5	96	48	0
HLD	36	0	7	96
HLD	36	48	0	96
TAP	36	144	6
TAP	36	192	1
TAP	36	288	4
BRK	36	288	6
BRK	37	0	1
TAP	37	0	3
TAP	37	144	1
TAP	37	192	1
TAP	37	264	0
TAP	37	336	7
TAP	38	0	6
TAP	38	48	7
TAP	38	72	6
TAP	38	96	7
TAP	38	144	0
TAP	38	168	7
TAP	38	192	0
TAP	38	240	1
TAP	38	264	0
TAP	38	288	1
TAP	38	336	1
TAP	39	0	7
TAP	39	72	2
BRK	39	96	3
TAP	39	192	0
TAP	39	264	5
BRK	39	288	4
STR	40	0	6
SI_	40	0	6	96	48	4
STR	40	0	7
SI_	40	0	7	96	48	3
TAP	40	48	6
TAP	40	48	7
STR	40	192	0
SI_	40	192	0	96	48	4
STR	40	192	1
SI_	40	192	1	96	48	3
TAP	40	240	0
TAP	40	240	1
TAP	41	0	6
TAP	41	24	7
TAP	41	48	6
TAP	41	72	7
TAP	41	96	6
TAP	41	144	1
BRK	41	192	0
STR	42	0	0
SCL	42	0	0	96	144	5
STR	42	0	1
SUL	42	0	1	96	144	4
TAP	42	336	7
TAP	42	360	6
STR	43	0	7
SCR	43	0	7	96	144	2
BRK	43	96	5
BRK	43	192	6
BRK	43	288	7
STR	44	0	0
SUR	44	0	0	96	144	5
STR	44	0	1
SCR	44	0	1	96	144	4
TAP	44	336	6
TAP	44	360	7
STR	45	0	6
SCL	45	0	6	96	144	3
BRK	45	96	2
BRK	45	192	1
BRK	45	288	0
STR	46	0	4
SUR	46	0	4	96	192	1
STR	46	0	7
SUR	46	0	7	96	192	4
STR	47	0	0
SUL	47	0	0	96	192	3
STR	47	0	3
SUL	47	0	3	96	192	6
TAP	48	0	6
TAP	48	0	7
TAP	48	48	5
TAP	48	96	4
TAP	48	144	3
TAP	48	192	0
TAP	48	192	1
TAP	48	240	2
TAP	48	288	3
TAP	48	336	4
TAP	49	0	0
TAP	49	0	7
TAP	49	48	1
TAP	49	96	2
TAP	49	144	3
TAP	49	192	0
TAP	49	192	7
TAP	49	240	6
TAP	49	288	5
TAP	49	336	4
HLD	50	0	2	384
TAP	50	96	3
TAP	50	192	3
TAP	50	288	3
STR	51	0	3
SI_	51	0	3	96	96	6
STR	51	96	6
SI_	51	96	6	96	96	1
STR	51	192	1
SI_	51	192	1	96	96	4
HLD	52	0	6	384
TAP	52	96	7
TAP	52	192	7
TAP	52	288	7
STR	53	0	7
SI_	53	0	7	96	96	2
STR	53	96	2
SI_	53	96	2	96	96	5
STR	53	192	5
SI_	53	192	5	96	96	0
TAP	54	0	1
HLD	54	72	4	312
TAP	54	96	3
TAP	54	192	3
TAP	54	288	3
STR	55	0	3
SI_	55	0	3	96	96	6
STR	55	96	6
SI_	55	96	6	96	96	2
STR	55	192	2
SI_	55	192	2	96	96	7
TAP	56	0	0
TAP	56	48	0
STR	56	96	0
SUL	56	96	0	96	480	3
STR	56	96	7
SUR	56	96	7	96	480	4
STR	58	0	2
SCL	58	0	2	96	288	3
STR	59	0	5
SCR	59	0	5	96	288	4
BRK	60	0	1
TAP	60	144	1
TAP	60	168	0
TAP	60	192	1
TAP	60	256	2
TAP	60	320	3
TAP	61	0	4
TAP	61	72	2
TAP	61	96	3
TAP	61	192	5
TAP	61	216	3
TAP	61	240	5
TAP	61	288	1
TAP	61	312	3
TAP	61	336	1
BRK	62	0	6
TAP	62	144	0
TAP	62	168	6
TAP	62	192	7
TAP	62	240	6
TAP	62	288	5
TAP	62	336	4
TAP	63	0	3
TAP	63	72	5
TAP	63	96	4
TAP	63	192	2
TAP	63	216	4
TAP	63	240	2
TAP	63	288	6
TAP	63	312	4
TAP	63	336	6
TAP	64	0	1
TAP	64	48	2
TAP	64	96	7
TAP	64	144	0
TAP	64	192	6
TAP	64	240	5
TAP	64	288	0
TAP	64	336	7
TAP	65	0	0
TAP	65	24	7
TAP	65	48	0
TAP	65	72	7
TAP	65	96	1
TAP	65	120	6
TAP	65	144	1
TAP	65	168	6
TAP	65	192	2
TAP	65	216	5
TAP	65	240	2
TAP	65	264	5
TAP	65	288	3
TAP	65	312	4
TAP	65	336	3
TAP	65	360	4
BRK	66	0	3
TAP	66	144	5
TAP	66	168	2
TAP	66	192	5
TAP	66	256	3
TAP	66	320	1
BRK	67	0	0
BRK	67	0	2
BRK	67	72	1
BRK	67	72	7
BRK	67	144	0
BRK	67	144	6
BRK	67	216	5
BRK	67	216	7
TAP	67	288	6
TAP	67	336	1
TAP	68	0	7
TAP	68	144	0
TAP	68	144	1
TAP	68	192	0
TAP	68	192	1
TAP	68	264	2
TAP	68	264	7
TAP	68	336	3
TAP	68	336	6
TAP	69	0	4
TAP	69	0	5
TAP	69	72	5
TAP	69	96	4
TAP	69	168	4
TAP	69	192	3
TAP	69	264	3
TAP	69	288	2
TAP	69	360	2
TAP	70	0	5
TAP	70	96	0
TAP	70	120	7
TAP	70	144	0
TAP	70	168	7
TAP	70	192	1
TAP	70	264	5
TAP	70	336	6
TAP	71	0	7
BRK	71	72	0
BRK	71	72	6
BRK	71	96	0
BRK	71	96	6
TAP	71	192	1
TAP	71	216	7
TAP	71	240	2
TAP	71	264	6
TAP	71	288	3
TAP	71	312	5
TAP	71	336	4
TAP	72	0	6
TAP	72	72	4
TAP	72	96	4
TAP	72	168	2
TAP	72	192	2
TAP	72	264	0
TAP	72	288	0
TAP	72	360	6
TAP	73	0	6
TAP	73	48	2
TAP	73	96	4
TAP	73	144	0
TAP	73	192	7
TAP	73	216	6
TAP	73	240	5
TAP	73	264	4
TAP	73	288	0
TAP	73	312	1
TAP	73	336	2
TAP	73	360	3
TAP	74	0	4
TAP	74	48	4
STR	74	96	4
SI_	74	96	4	96	96	0
TAP	75	0	3
TAP	75	48	7
TAP	75	96	1
TAP	75	144	4
TAP	75	192	1
TAP	75	240	5
TAP	75	288	3
TAP	75	336	6
TAP	76	0	0
TAP	76	24	6
TAP	76	48	1
TAP	76	72	5
TAP	76	96	2
TAP	76	120	6
TAP	76	144	1
TAP	76	168	7
TAP	76	192	2
TAP	76	216	6
TAP	76	240	1
TAP	76	264	7
TAP	76	288	0
TAP	76	312	6
TAP	76	336	1
TAP	76	360	5
STR	77	0	0
SI_	77	0	0	96	672	4

T_REC_TAP	294
T_REC_BRK	34
T_REC_XTP	0
T_REC_HLD	14
T_REC_XHO	0
T_REC_STR	60
T_REC_BST	0
T_REC_XST	0
T_REC_TTP	0
T_REC_THO	0
T_REC_SLD	60
T_REC_ALL	462
T_NUM_TAP	354
T_NUM_BRK	34
T_NUM_HLD	14
T_NUM_SLD	60
T_NUM_ALL	462
T_JUDGE_TAP	388
T_JUDGE_HLD	147
T_JUDGE_SLD	60
T_JUDGE_ALL	595
TTM_EACHPAIRS	53
TTM_SCR_TAP	177000
TTM_SCR_BRK	88400
TTM_SCR_HLD	14000
TTM_SCR_SLD	90000
TTM_SCR_ALL	369400
TTM_SCR_S	355050
TTM_SCR_SS	366000
TTM_RAT_ACV	10092

