VERSION	0.00.00	1.03.00
FES_MODE	0
BPM_DEF	158.000	158.000	158.000	158.000
MET_DEF	4	4
RESOLUTION	384
CLK_DEF	384
COMPATIBLE_CODE	MA2

BPM	0	0	158.000
MET	0	0	4	4

HLD	1	0	7	2976
HLD	9	0	6	288
HLD	10	0	5	288
HLD	11	0	4	288
HLD	12	0	3	288
HLD	13	0	2	288
HLD	14	0	1	288
HLD	15	0	0	288
HLD	16	0	7	288
TAP	17	0	0
TAP	17	96	0
TAP	17	192	1
TAP	17	288	1
TAP	18	0	2
TAP	18	96	2
TAP	18	192	3
TAP	18	288	3
TAP	19	0	4
TAP	19	96	4
TAP	19	192	5
TAP	19	288	5
TAP	20	0	6
TAP	20	96	6
TAP	20	192	7
TAP	20	288	7
STR	21	0	0
SI_	21	0	0	96	96	4
STR	22	0	7
SI_	22	0	7	96	96	3
STR	23	0	1
SI_	23	0	1	96	96	4
STR	23	192	6
SI_	23	192	6	96	96	3
BRK	24	0	1
STR	25	0	0
SV_	25	0	0	96	96	2
STR	26	0	2
SV_	26	0	2	96	96	4
TAP	27	0	4
TAP	27	96	4
TAP	27	192	6
TAP	27	288	6
TAP	28	0	1
TAP	28	96	1
TAP	28	192	3
TAP	28	288	3
HLD	29	0	7	288
HLD	30	0	0	288
TAP	31	0	1
TAP	31	0	6
TAP	31	192	1
TAP	31	192	6
TAP	32	0	0
TAP	32	0	7
TAP	32	96	1
TAP	32	96	6
BRK	32	192	2
BRK	32	192	5
HLD	33	0	1	96
TAP	33	192	3
TAP	34	0	7
TAP	34	96	6
TAP	34	192	5
HLD	35	0	6	96
TAP	35	192	4
TAP	36	0	0
TAP	36	96	1
TAP	36	192	2
BRK	36	288	3
TAP	37	0	4
TAP	37	192	3
TAP	38	0	5
TAP	38	96	2
TAP	38	192	6
TAP	38	288	1
TAP	39	0	0
TAP	39	0	7
TAP	39	96	0
TAP	39	96	7
TAP	39	192	0
TAP	39	192	7
TAP	40	0	1
TAP	40	0	6
TAP	40	96	1
TAP	40	96	6
TAP	40	192	1
TAP	40	192	6
HLD	41	0	2	192
HLD	41	0	5	192
TAP	42	0	2
TAP	42	96	2
TAP	42	96	3
TAP	42	192	5
TAP	42	288	4
TAP	42	288	5
TAP	43	0	1
TAP	43	96	2
TAP	43	96	3
TAP	43	192	6
TAP	43	288	4
TAP	43	288	5
TAP	44	0	3
TAP	44	0	4
TAP	44	96	2
TAP	44	96	5
TAP	44	192	1
TAP	44	192	6
TAP	44	288	0
TAP	44	288	7
TAP	45	0	0
TAP	45	0	7
TAP	45	96	1
TAP	45	96	7
TAP	45	192	2
TAP	45	192	7
TAP	45	288	3
TAP	45	288	7
TAP	46	0	3
TAP	46	0	7
TAP	46	96	2
TAP	46	96	6
TAP	46	192	1
TAP	46	192	5
TAP	46	288	0
TAP	46	288	4
TAP	47	0	0
TAP	47	0	4
TAP	47	96	1
TAP	47	96	5
TAP	47	192	2
TAP	47	192	6
TAP	47	288	3
TAP	47	288	7
HLD	48	0	7	96
HLD	48	192	0	96
TAP	49	0	0
TAP	49	96	2
TAP	49	192	4
BRK	49	288	6
TAP	50	0	0
TAP	50	48	0
TAP	50	96	0
TAP	50	192	4
TAP	50	240	4
TAP	50	288	4
TAP	51	0	1
TAP	51	48	1
TAP	51	96	1
TAP	51	192	5
TAP	51	240	5
TAP	51	288	5
TAP	52	0	2
TAP	52	48	2
TAP	52	96	2
TAP	52	192	6
TAP	52	240	6
TAP	52	288	6
TAP	53	0	3
TAP	53	48	3
TAP	53	96	3
TAP	53	192	7
TAP	53	240	7
TAP	53	288	7
STR	54	0	0
SV_	54	0	0	96	96	2
STR	54	0	7
SV_	54	0	7	96	96	5
TAP	55	96	0
TAP	55	96	1
TAP	55	192	6
TAP	55	192	7
TAP	55	288	2
TAP	55	288	5
HLD	56	0	0	768
HLD	56	0	7	768
STR	59	0	0
SI_	59	0	0	96	48	4
STR	59	192	7
SI_	59	192	7	96	48	3
BRK	60	0	0
TAP	60	192	0
TAP	60	288	0
TAP	61	0	6
TAP	61	96	6
TAP	61	192	7
TAP	61	288	0
TAP	62	0	1
TAP	62	192	4
TAP	62	192	5
TAP	62	288	2
TAP	62	288	3
TAP	63	0	0
TAP	63	0	1
TAP	63	96	6
TAP	63	96	7
BRK	63	192	1
BRK	63	288	6
TAP	64	0	2
TAP	64	48	2
TAP	64	96	2
TAP	64	192	3
TAP	64	240	3
TAP	64	288	3
TAP	65	0	4
TAP	65	48	4
TAP	65	96	4
TAP	65	192	5
TAP	65	240	5
TAP	65	288	5
BRK	66	0	2
TAP	66	192	5
TAP	67	0	2
TAP	67	0	3
TAP	67	96	4
TAP	67	96	5
TAP	67	192	6
TAP	67	192	7
TAP	67	288	0
TAP	67	288	1
BRK	68	0	0
BRK	68	0	1
TAP	68	192	2
TAP	68	288	3
TAP	69	0	4
TAP	69	96	5
TAP	69	192	4
TAP	69	192	5
TAP	69	288	3
TAP	69	288	4
TAP	70	0	2
TAP	70	0	3
TAP	70	192	1
TAP	70	288	0
TAP	71	0	7
TAP	71	96	6
TAP	71	192	6
TAP	71	192	7
TAP	71	288	0
TAP	71	288	7
TAP	72	0	0
TAP	72	0	1
TAP	72	192	4
TAP	72	192	5
TAP	73	0	3
TAP	73	0	6
TAP	73	96	2
TAP	73	96	7
TAP	73	192	0
TAP	73	192	1
TAP	73	288	6
TAP	73	288	7
STR	74	0	0
SI_	74	0	0	96	192	3
STR	74	0	7
SI_	74	0	7	96	192	4
TAP	75	0	3
TAP	75	96	4
TAP	75	192	2
TAP	75	288	5
TAP	76	0	0
TAP	76	0	1
TAP	76	96	2
TAP	76	96	3
TAP	76	192	4
TAP	76	192	5
TAP	76	288	6
TAP	76	288	7
BRK	77	0	0
BRK	77	0	7

T_REC_TAP	213
T_REC_BRK	13
T_REC_XTP	0
T_REC_HLD	19
T_REC_XHO	0
T_REC_STR	12
T_REC_BST	0
T_REC_XST	0
T_REC_TTP	0
T_REC_THO	0
T_REC_SLD	12
T_REC_ALL	269
T_NUM_TAP	225
T_NUM_BRK	13
T_NUM_HLD	19
T_NUM_SLD	12
T_NUM_ALL	269
T_JUDGE_TAP	238
T_JUDGE_HLD	170
T_JUDGE_SLD	12
T_JUDGE_ALL	420
TTM_EACHPAIRS	63
TTM_SCR_TAP	112500
TTM_SCR_BRK	33800
TTM_SCR_HLD	19000
TTM_SCR_SLD	18000
TTM_SCR_ALL	183300
TTM_SCR_S	176550
TTM_SCR_SS	182000
TTM_RAT_ACV	10071

