VERSION	0.00.00	1.03.00
FES_MODE	0
BPM_DEF	158.000	158.000	158.000	158.000
MET_DEF	4	4
RESOLUTION	384
CLK_DEF	384
COMPATIBLE_CODE	MA2

BPM	0	0	158.000
MET	0	0	4	4

HLD	9	0	0	192
HLD	10	0	0	192
HLD	11	0	1	192
HLD	12	0	1	192
HLD	13	0	2	192
HLD	14	0	2	192
HLD	15	0	3	192
HLD	16	0	3	192
TAP	17	0	4
TAP	17	0	5
TAP	18	0	4
TAP	18	0	5
TAP	19	0	2
TAP	19	0	3
TAP	20	0	2
TAP	20	0	3
TAP	21	0	0
TAP	21	0	1
TAP	22	0	0
TAP	22	0	1
TAP	23	0	7
TAP	23	192	7
BRK	24	0	0
BRK	24	0	7
STR	25	0	1
SI_	25	0	1	96	192	5
STR	26	0	6
SI_	26	0	6	96	192	2
TAP	27	0	1
TAP	27	192	1
TAP	28	0	0
TAP	28	192	0
STR	29	0	7
SI_	29	0	7	96	192	3
STR	30	0	0
SI_	30	0	0	96	192	4
TAP	31	0	5
TAP	31	192	6
TAP	32	0	7
BRK	32	192	0
BRK	32	192	7
TAP	33	0	1
TAP	33	192	2
TAP	34	0	3
TAP	34	96	3
TAP	34	192	3
HLD	35	0	4	192
TAP	36	0	5
TAP	36	192	6
TAP	36	288	6
TAP	37	0	6
TAP	37	192	5
TAP	38	0	4
TAP	38	96	4
TAP	38	192	4
HLD	39	0	3	192
TAP	40	0	2
TAP	40	96	2
TAP	40	192	1
TAP	40	288	1
TAP	41	0	0
TAP	41	96	0
BRK	41	192	0
STR	42	0	0
SI_	42	0	0	96	192	5
TAP	43	192	6
TAP	43	288	6
STR	44	0	6
SI_	44	0	6	96	192	3
TAP	45	192	2
TAP	45	288	2
STR	46	0	2
SI_	46	0	2	96	192	5
TAP	47	192	6
TAP	47	288	6
STR	48	0	6
SI_	48	0	6	96	192	1
TAP	49	192	0
TAP	49	288	0
STR	50	0	0
SI_	50	0	0	96	192	3
TAP	51	96	4
TAP	51	192	4
TAP	51	288	4
STR	52	0	4
SI_	52	0	4	96	192	7
TAP	53	96	1
TAP	53	192	1
TAP	53	288	1
STR	54	0	1
SI_	54	0	1	96	192	6
TAP	55	96	5
TAP	55	192	5
TAP	55	288	5
STR	56	0	5
SI_	56	0	5	96	192	2
TAP	60	0	0
TAP	60	96	1
TAP	60	192	0
TAP	60	288	1
TAP	61	0	7
TAP	61	96	7
TAP	62	0	7
TAP	62	96	6
TAP	62	192	7
TAP	62	288	6
TAP	63	0	0
TAP	63	96	0
TAP	64	0	0
TAP	64	96	0
TAP	64	192	1
TAP	64	288	1
TAP	65	0	2
TAP	65	96	2
TAP	65	192	3
TAP	65	288	3
TAP	66	0	3
TAP	66	0	4
TAP	66	192	2
TAP	66	192	5
TAP	67	0	1
TAP	67	0	6
BRK	67	192	0
BRK	67	192	7
TAP	68	0	0
TAP	68	192	7
TAP	68	288	7
TAP	69	0	6
HLD	69	96	6	192
TAP	70	96	5
TAP	70	192	5
TAP	70	288	4
TAP	71	0	4
HLD	71	96	4	192
TAP	72	0	3
TAP	72	0	4
TAP	72	192	2
TAP	72	192	5
TAP	73	0	1
TAP	73	0	6
BRK	73	192	0
BRK	73	192	7
STR	74	0	1
SI_	74	0	1	96	192	4
STR	75	0	6
SI_	75	0	6	96	192	3
TAP	76	0	2
TAP	76	96	3
TAP	76	192	2
TAP	76	288	3
STR	77	0	2
SI_	77	0	2	96	192	6

T_REC_TAP	101
T_REC_BRK	9
T_REC_XTP	0
T_REC_HLD	12
T_REC_XHO	0
T_REC_STR	15
T_REC_BST	0
T_REC_XST	0
T_REC_TTP	0
T_REC_THO	0
T_REC_SLD	15
T_REC_ALL	152
T_NUM_TAP	116
T_NUM_BRK	9
T_NUM_HLD	12
T_NUM_SLD	15
T_NUM_ALL	152
T_JUDGE_TAP	125
T_JUDGE_HLD	48
T_JUDGE_SLD	15
T_JUDGE_ALL	188
TTM_EACHPAIRS	16
TTM_SCR_TAP	58000
TTM_SCR_BRK	23400
TTM_SCR_HLD	12000
TTM_SCR_SLD	22500
TTM_SCR_ALL	115900
TTM_SCR_S	111550
TTM_SCR_SS	115000
TTM_RAT_ACV	10078

