VERSION	0.00.00	1.03.00
FES_MODE	0
BPM_DEF	180.000	180.000	180.000	180.000
MET_DEF	4	4
RESOLUTION	384
CLK_DEF	384
COMPATIBLE_CODE	MA2

BPM	0	0	180.000
MET	0	0	4	4

HLD	1	0	1	384
STR	1	0	7
SI_	1	0	7	96	192	3
STR	2	0	3
SI_	2	0	3	96	192	6
HLD	2	288	0	288
STR	3	0	1
SCR	3	0	1	96	192	4
TAP	3	288	0
TAP	4	0	1
STR	4	48	1
SCL	4	48	1	96	96	6
TAP	4	96	6
STR	4	144	6
SCL	4	144	6	96	96	3
TAP	4	288	0
TAP	5	0	6
TAP	5	48	6
TAP	5	96	7
TAP	5	144	7
TAP	5	192	0
TAP	5	240	0
TAP	5	288	1
TAP	5	336	1
TAP	6	0	2
TAP	6	0	3
TAP	6	96	1
TAP	6	96	4
TAP	6	192	0
TAP	6	192	5
TAP	6	288	6
TAP	6	288	7
TAP	7	0	1
TAP	7	0	6
TAP	7	72	0
HLD	7	96	7	576
TAP	7	192	1
TAP	7	288	2
TAP	8	0	3
TAP	8	96	4
TAP	8	192	5
TAP	8	288	6
TAP	9	0	7
TAP	9	48	6
TAP	9	96	5
TAP	9	144	4
TAP	9	192	3
TAP	9	216	4
TAP	9	240	5
TAP	9	264	6
TAP	9	288	7
TAP	9	312	0
TAP	9	336	1
TAP	9	360	2
BRK	10	0	3
BRK	10	0	4
TAP	10	48	6
TAP	10	96	7
STR	10	144	0
SI_	10	144	0	96	48	4
TAP	10	240	3
TAP	10	288	2
TAP	10	336	1
TAP	11	0	0
TAP	11	48	5
TAP	11	72	4
TAP	11	96	3
TAP	11	144	2
TAP	11	168	3
TAP	11	192	4
TAP	11	240	5
TAP	11	288	6
TAP	11	336	7
STR	12	0	0
SI_	12	0	0	96	48	4
TAP	12	48	1
TAP	12	96	2
TAP	12	144	3
STR	12	192	5
SI_	12	192	5	96	48	1
TAP	12	240	6
TAP	12	288	7
TAP	12	336	0
HLD	13	0	0	288
STR	13	72	1
SUR	13	72	1	96	48	6
TAP	13	96	1
TAP	13	288	7
TAP	14	0	0
TAP	14	48	5
TAP	14	96	6
HLD	14	144	2	96
TAP	14	240	1
TAP	14	288	7
TAP	14	312	6
TAP	14	336	5
TAP	14	360	4
TAP	15	48	1
TAP	15	48	3
TAP	15	144	0
TAP	15	192	1
TAP	15	240	2
TAP	15	264	3
TAP	15	288	2
TAP	15	336	5
STR	16	0	4
SI_	16	0	4	96	48	1
TAP	16	48	4
STR	16	96	3
SI_	16	96	3	96	48	6
TAP	16	144	3
STR	16	192	5
SI_	16	192	5	96	48	0
TAP	16	240	5
STR	16	288	2
SI_	16	288	2	96	48	7
TAP	16	336	2
STR	17	0	4
SI_	17	0	4	96	48	0
STR	17	72	7
SCL	17	72	7	96	216	0
TAP	17	96	7
TAP	18	48	2
TAP	18	96	4
HLD	18	144	6	96
TAP	18	240	7
TAP	18	288	0
TAP	18	336	2
TAP	19	0	4
TAP	19	48	6
TAP	19	72	7
TAP	19	96	0
TAP	19	144	1
TAP	19	168	0
TAP	19	192	7
TAP	19	240	6
TAP	19	288	5
TAP	19	336	4
STR	20	0	3
SI_	20	0	3	96	48	7
TAP	20	48	2
TAP	20	96	1
TAP	20	144	0
STR	20	192	6
SI_	20	192	6	96	48	2
TAP	20	240	5
TAP	20	288	4
TAP	20	336	3
HLD	21	0	3	288
STR	21	72	2
SUL	21	72	2	96	48	5
TAP	21	96	2
TAP	21	288	4
TAP	22	0	0
TAP	22	0	6
TAP	22	48	1
TAP	22	48	3
TAP	22	96	2
TAP	22	96	7
TAP	22	144	4
TAP	22	144	6
STR	22	240	0
SI_	22	240	0	96	48	4
STR	22	288	4
SI_	22	288	4	96	48	1
TAP	23	96	4
TAP	23	144	3
STR	23	240	7
SI_	23	240	7	96	48	3
STR	23	288	3
SI_	23	288	3	96	48	6
TAP	24	96	3
TAP	24	144	4
TAP	24	240	3
TAP	24	288	2
TAP	24	336	1
STR	25	0	0
SCR	25	0	0	96	48	3
TAP	25	48	7
TAP	25	96	6
STR	25	144	5
SCR	25	144	5	96	48	0
TAP	25	192	4
TAP	25	240	3
STR	25	288	2
SCR	25	288	2	96	48	5
TAP	25	336	1
TAP	26	0	0
STR	26	48	7
SUL	26	48	7	96	48	6
BRK	26	192	0
TAP	27	0	1
TAP	27	48	5
TAP	27	144	5
TAP	27	240	4
TAP	27	288	5
TAP	27	336	6
TAP	28	0	3
TAP	28	0	7
TAP	28	48	2
TAP	28	144	2
TAP	28	240	4
TAP	28	288	3
TAP	28	336	2
TAP	29	0	1
TAP	29	0	5
TAP	29	48	4
TAP	29	144	4
TAP	29	240	1
TAP	29	288	3
TAP	29	336	5
TAP	30	0	0
TAP	30	0	7
TAP	30	48	3
TAP	30	144	3
TAP	30	240	0
TAP	30	240	6
TAP	30	288	1
TAP	30	288	3
TAP	30	336	1
TAP	30	336	7
TAP	31	0	4
TAP	31	0	6
TAP	31	48	5
TAP	31	144	5
TAP	31	240	1
TAP	31	240	7
TAP	31	288	4
TAP	31	288	6
TAP	31	336	0
TAP	31	336	6
TAP	32	0	1
TAP	32	0	3
TAP	32	48	2
TAP	32	144	2
TAP	32	240	1
TAP	32	240	4
TAP	32	288	3
TAP	32	288	6
TAP	32	336	0
TAP	32	336	4
TAP	33	0	3
TAP	33	0	7
TAP	33	48	4
TAP	33	144	4
TAP	33	240	3
TAP	33	240	6
TAP	33	288	1
TAP	33	288	4
TAP	33	336	3
TAP	33	336	7
TAP	34	0	0
TAP	34	0	4
BRK	34	96	7
BRK	34	192	6
BRK	34	288	5
TAP	35	0	4
TAP	35	48	1
TAP	35	48	3
TAP	35	144	2
TAP	35	144	4
TAP	35	240	1
TAP	35	240	3
TAP	35	288	0
TAP	35	312	7
TAP	35	336	1
TAP	35	360	6
TAP	36	0	2
TAP	36	48	3
TAP	36	48	5
TAP	36	144	4
TAP	36	144	6
TAP	36	240	3
TAP	36	240	5
TAP	36	288	6
TAP	36	312	7
TAP	36	336	5
TAP	36	360	0
TAP	37	0	4
TAP	37	48	2
TAP	37	48	5
TAP	37	144	3
TAP	37	144	4
TAP	37	240	2
TAP	37	240	5
TAP	37	288	3
TAP	37	312	4
TAP	37	336	2
TAP	37	360	5
TAP	38	0	1
TAP	38	48	0
TAP	38	48	7
TAP	38	144	1
TAP	38	144	6
TAP	38	192	2
TAP	38	216	3
TAP	38	240	4
TAP	38	264	5
BRK	38	288	6
HLD	39	0	6	144
TAP	39	48	4
HLD	39	144	2	96
TAP	39	240	0
TAP	39	288	2
TAP	39	312	6
TAP	39	336	1
TAP	39	360	5
HLD	40	0	0	144
TAP	40	48	2
HLD	40	144	6	96
TAP	40	240	4
TAP	40	288	6
TAP	40	312	2
TAP	40	336	5
TAP	40	360	1
HLD	41	0	4	144
TAP	41	48	0
HLD	41	144	3	96
TAP	41	240	7
TAP	41	288	0
TAP	41	312	7
TAP	41	336	1
TAP	41	360	6
BRK	42	0	0
TAP	42	96	3
TAP	42	96	7
TAP	42	192	1
TAP	42	192	5
TAP	42	288	2
TAP	42	288	6
STR	43	0	0
SUL	43	0	0	96	96	2
STR	43	192	5
SUR	43	192	5	96	96	3
STR	44	0	1
SUL	44	0	1	96	96	3
STR	44	192	6
SUR	44	192	6	96	96	4
STR	45	0	2
SUL	45	0	2	96	96	4
STR	45	192	7
SUR	45	192	7	96	96	5
STR	46	0	3
SUR	46	0	3	96	96	4
TAP	46	192	7
TAP	46	264	7
TAP	46	336	7
STR	47	0	2
SUR	47	0	2	96	96	5
STR	47	192	6
SUL	47	192	6	96	96	3
STR	48	0	1
SUR	48	0	1	96	96	4
STR	48	192	7
SUL	48	192	7	96	96	4
STR	49	0	0
SUR	49	0	0	96	96	3
STR	49	192	5
SUL	49	192	5	96	96	2
TAP	50	0	1
TAP	50	96	0
TAP	50	96	7
TAP	50	192	1
TAP	50	192	6
TAP	50	288	2
TAP	50	288	5
TAP	51	0	1
TAP	51	48	5
TAP	51	72	4
TAP	51	96	5
TAP	51	144	1
TAP	51	192	5
TAP	51	216	4
TAP	51	240	5
TAP	51	288	0
TAP	51	336	0
TAP	52	0	6
TAP	52	48	2
TAP	52	72	3
TAP	52	96	2
TAP	52	144	6
TAP	52	192	2
TAP	52	216	3
TAP	52	240	2
TAP	52	288	7
TAP	52	336	7
TAP	53	0	3
TAP	53	0	4
TAP	53	48	1
TAP	53	72	5
TAP	53	96	1
TAP	53	144	0
TAP	53	144	7
TAP	53	192	6
TAP	53	216	2
TAP	53	240	6
TAP	53	288	0
TAP	53	336	7
TAP	54	0	1
TAP	54	48	4
TAP	54	72	6
TAP	54	96	0
TAP	54	144	3
TAP	54	192	0
TAP	54	192	1
TAP	54	264	5
TAP	54	264	6
TAP	54	336	2
TAP	54	336	3
TAP	55	0	1
TAP	55	48	6
TAP	55	72	7
TAP	55	96	4
TAP	55	144	3
TAP	55	192	0
TAP	55	216	1
TAP	55	240	6
TAP	55	288	4
TAP	55	336	4
TAP	56	0	5
TAP	56	48	2
TAP	56	72	4
TAP	56	96	0
TAP	56	144	5
TAP	56	192	4
TAP	56	216	6
TAP	56	240	2
TAP	56	288	0
TAP	56	336	0
TAP	57	0	1
TAP	57	48	7
TAP	57	72	6
TAP	57	96	5
TAP	57	144	2
TAP	57	192	0
TAP	57	192	1
TAP	57	240	2
TAP	57	288	3
TAP	57	336	4
TAP	58	0	6
TAP	58	0	7
TAP	58	96	0
TAP	58	96	1
TAP	58	192	2
TAP	58	192	3
TAP	58	288	4
TAP	58	288	5
TAP	59	0	2
TAP	59	96	2
TAP	59	96	3
TAP	59	192	5
TAP	59	240	5
TAP	59	288	4
TAP	59	288	5
TAP	60	0	2
TAP	60	48	2
TAP	60	72	3
TAP	60	96	2
TAP	60	144	2
TAP	60	192	3
TAP	60	240	4
BRK	60	288	4
BRK	60	288	5
TAP	61	0	1
TAP	61	96	1
TAP	61	96	2
TAP	61	192	6
TAP	61	240	6
TAP	61	288	5
TAP	61	288	6
TAP	62	0	1
TAP	62	48	3
TAP	62	96	5
TAP	62	144	7
TAP	62	192	0
TAP	62	192	6
TAP	62	264	2
TAP	62	264	7
TAP	62	336	1
TAP	62	336	5
TAP	63	0	0
TAP	63	0	1
TAP	63	96	2
TAP	63	96	7
TAP	63	192	6
TAP	63	192	7
TAP	63	240	0
TAP	63	240	5
TAP	63	288	1
TAP	63	288	4
TAP	64	0	3
TAP	64	0	7
TAP	64	48	3
TAP	64	48	7
TAP	64	72	2
TAP	64	72	6
TAP	64	96	1
TAP	64	96	5
TAP	64	144	0
TAP	64	144	4
TAP	64	192	0
TAP	64	192	7
TAP	64	240	1
TAP	64	240	6
TAP	64	288	2
TAP	64	288	5
TAP	64	360	0
TAP	65	0	1
TAP	65	48	2
TAP	65	96	1
TAP	65	96	3
TAP	65	168	7
TAP	65	192	6
TAP	65	240	5
TAP	65	288	4
TAP	65	288	6
TAP	65	360	3
TAP	66	0	4
TAP	66	48	1
TAP	66	96	0
STR	66	144	7
SI_	66	144	7	96	48	3
TAP	66	240	4
TAP	66	288	5
TAP	66	336	6
TAP	67	0	7
TAP	67	48	2
TAP	67	72	3
TAP	67	96	4
TAP	67	144	5
TAP	67	168	4
TAP	67	192	3
TAP	67	240	2
TAP	67	288	1
TAP	67	336	0
STR	68	0	7
SI_	68	0	7	96	48	3
TAP	68	48	6
TAP	68	96	5
TAP	68	144	4
STR	68	192	2
SI_	68	192	2	96	48	6
TAP	68	240	1
TAP	68	288	0
TAP	68	336	7
HLD	69	0	7	288
STR	69	72	6
SUL	69	72	6	96	48	1
TAP	69	96	6
TAP	69	288	0
TAP	70	0	7
TAP	70	48	2
TAP	70	96	1
HLD	70	144	5	96
TAP	70	240	6
TAP	70	288	0
TAP	70	312	1
TAP	70	336	2
TAP	70	360	3
TAP	71	48	4
TAP	71	48	6
TAP	71	144	7
TAP	71	192	6
TAP	71	240	5
TAP	71	264	4
TAP	71	288	5
TAP	71	336	2
STR	72	0	3
SI_	72	0	3	96	48	6
TAP	72	48	3
STR	72	96	4
SI_	72	96	4	96	48	1
TAP	72	144	4
STR	72	192	2
SI_	72	192	2	96	48	7
TAP	72	240	2
STR	72	288	5
SI_	72	288	5	96	48	0
TAP	72	336	5
STR	73	0	3
SI_	73	0	3	96	48	7
STR	73	72	0
SCR	73	72	0	96	216	7
TAP	73	96	0
TAP	74	48	0
TAP	74	96	2
TAP	74	144	4
TAP	74	192	6
TAP	74	192	7
TAP	74	240	0
TAP	74	240	1
TAP	74	288	2
TAP	74	288	3
TAP	74	336	4
TAP	74	336	5
TAP	75	0	1
TAP	75	48	5
TAP	75	72	4
TAP	75	96	3
TAP	75	144	2
TAP	75	168	3
TAP	75	192	4
TAP	75	240	5
TAP	75	288	6
TAP	75	336	7
STR	76	0	0
SI_	76	0	0	96	48	4
TAP	76	48	1
TAP	76	96	2
TAP	76	144	3
STR	76	192	5
SI_	76	192	5	96	48	1
TAP	76	240	6
TAP	76	288	7
TAP	76	336	0
TAP	77	0	2
STR	77	0	7
SCR	77	0	7	96	48	2
TAP	77	96	3
STR	77	192	0
SCL	77	192	0	96	48	5
TAP	77	192	5
TAP	77	288	4
HLD	78	0	3	96
HLD	78	0	7	96
STR	78	192	1
SUR	78	192	1	96	48	5
STR	78	192	5
SUR	78	192	5	96	48	1
STR	78	288	1
SI_	78	288	1	96	48	6
STR	78	288	5
SI_	78	288	5	96	48	2
TAP	79	96	0
TAP	79	144	7
STR	79	240	3
SUL	79	240	3	96	48	7
STR	79	240	7
SUL	79	240	7	96	48	3
STR	79	288	3
SI_	79	288	3	96	48	5
STR	79	288	7
SI_	79	288	7	96	48	1
TAP	80	96	7
TAP	80	144	0
STR	80	240	0
SUR	80	240	0	96	48	4
STR	80	240	4
SUR	80	240	4	96	48	0
STR	80	288	0
SI_	80	288	0	96	48	6
STR	80	288	4
SI_	80	288	4	96	48	2
TAP	81	96	0
TAP	81	144	7
TAP	81	288	0
TAP	81	288	7
TAP	82	0	2
TAP	82	48	1
TAP	82	48	5
TAP	82	96	0
TAP	82	144	7
TAP	82	192	4
TAP	82	192	6
TAP	82	240	3
TAP	82	288	2
TAP	82	336	1
TAP	82	336	4
STR	83	0	0
SI_	83	0	0	96	48	4
TAP	83	48	7
TAP	83	96	6
STR	83	144	5
SI_	83	144	5	96	48	1
TAP	83	192	4
TAP	83	240	3
STR	83	288	2
SI_	83	288	2	96	48	6
TAP	83	336	1
TAP	84	0	0
STR	84	48	7
SI_	84	48	7	96	48	3
TAP	84	96	6
STR	84	144	5
SI_	84	144	5	96	48	1
TAP	84	192	5
STR	84	240	3
SI_	84	240	3	96	48	7
STR	84	288	3
SCL	84	288	3	96	288	4
TAP	84	336	3
TAP	86	192	3
TAP	86	240	4

T_REC_TAP	522
T_REC_BRK	10
T_REC_XTP	0
T_REC_HLD	17
T_REC_XHO	0
T_REC_STR	72
T_REC_BST	0
T_REC_XST	0
T_REC_TTP	0
T_REC_THO	0
T_REC_SLD	72
T_REC_ALL	693
T_NUM_TAP	594
T_NUM_BRK	10
T_NUM_HLD	17
T_NUM_SLD	72
T_NUM_ALL	693
T_JUDGE_TAP	604
T_JUDGE_HLD	69
T_JUDGE_SLD	72
T_JUDGE_ALL	745
TTM_EACHPAIRS	99
TTM_SCR_TAP	297000
TTM_SCR_BRK	26000
TTM_SCR_HLD	17000
TTM_SCR_SLD	108000
TTM_SCR_ALL	448000
TTM_SCR_S	433600
TTM_SCR_SS	447000
TTM_RAT_ACV	10022

