VERSION	0.00.00	1.03.00
FES_MODE	0
BPM_DEF	180.000	180.000	180.000	180.000
MET_DEF	4	4
RESOLUTION	384
CLK_DEF	384
COMPATIBLE_CODE	MA2

BPM	0	0	180.000
MET	0	0	4	4

HLD	1	0	0	384
HLD	2	0	7	384
HLD	3	0	5	192
HLD	3	192	4	192
HLD	4	0	3	192
HLD	4	192	2	192
STR	5	0	7
SCR	5	0	7	96	144	2
STR	6	0	0
SCL	6	0	0	96	144	5
TAP	7	0	0
TAP	7	0	7
TAP	7	72	0
TAP	7	72	7
HLD	7	96	1	1056
HLD	7	96	6	1056
TAP	10	96	1
TAP	10	96	6
TAP	10	192	2
TAP	10	192	5
BRK	10	288	3
BRK	10	288	4
TAP	11	0	1
TAP	11	96	2
TAP	11	192	7
TAP	11	288	6
TAP	12	0	2
TAP	12	0	4
TAP	12	96	3
TAP	12	96	5
TAP	12	192	2
TAP	12	192	4
TAP	12	288	3
TAP	12	288	5
TAP	13	0	0
TAP	13	96	1
TAP	13	192	6
TAP	13	288	5
TAP	14	0	1
TAP	14	0	7
TAP	14	96	0
TAP	14	96	6
TAP	14	192	1
TAP	14	192	7
TAP	14	288	0
TAP	14	288	6
TAP	15	0	2
TAP	15	96	3
TAP	15	192	2
TAP	15	288	6
TAP	15	288	7
TAP	16	0	5
TAP	16	96	4
TAP	16	192	5
TAP	16	288	0
TAP	16	288	7
STR	17	0	0
SUL	17	0	0	96	288	7
HLD	18	0	5	96
HLD	18	96	4	96
HLD	18	192	3	96
HLD	18	288	2	96
TAP	19	0	7
TAP	19	96	6
TAP	19	192	0
TAP	19	288	1
TAP	20	0	2
TAP	20	0	3
TAP	20	96	4
TAP	20	96	5
TAP	20	192	1
TAP	20	192	3
TAP	20	288	4
TAP	20	288	6
TAP	21	0	2
TAP	21	96	3
TAP	21	192	5
TAP	21	288	4
TAP	22	0	0
TAP	22	0	1
TAP	22	96	6
TAP	22	96	7
TAP	22	192	1
TAP	22	192	7
TAP	22	288	0
TAP	22	288	6
TAP	23	0	2
TAP	23	0	3
TAP	23	96	2
TAP	23	96	3
TAP	23	192	2
TAP	23	192	4
TAP	23	288	2
TAP	23	288	3
TAP	24	0	4
TAP	24	0	5
TAP	24	96	4
TAP	24	96	5
TAP	24	192	3
TAP	24	192	5
TAP	24	288	4
TAP	24	288	5
TAP	25	0	6
TAP	25	0	7
TAP	25	96	4
TAP	25	96	5
TAP	25	192	2
TAP	25	192	3
TAP	25	288	0
TAP	25	288	1
HLD	26	0	0	96
HLD	26	0	7	96
BRK	26	192	1
BRK	26	192	6
TAP	27	0	3
HLD	27	0	5	96
TAP	27	96	4
HLD	27	192	2	96
TAP	27	192	4
TAP	27	288	3
TAP	28	0	3
HLD	28	0	5	96
TAP	28	96	4
HLD	28	192	2	96
TAP	28	192	4
TAP	28	288	3
HLD	29	0	4	96
TAP	29	0	5
TAP	29	96	3
TAP	29	192	2
HLD	29	192	3	96
TAP	29	288	4
HLD	30	0	4	96
TAP	30	0	5
TAP	30	96	3
TAP	30	192	2
HLD	30	192	3	96
TAP	30	288	4
TAP	31	0	0
HLD	31	0	6	96
TAP	31	96	7
HLD	31	192	1	96
TAP	31	192	7
TAP	31	288	0
TAP	32	0	6
HLD	32	0	7	96
TAP	32	96	0
HLD	32	192	0	96
TAP	32	192	1
TAP	32	288	7
TAP	33	0	0
TAP	33	0	7
TAP	33	96	0
TAP	33	96	1
TAP	33	192	6
TAP	33	192	7
TAP	33	288	2
TAP	33	288	5
TAP	34	0	0
TAP	34	0	7
BRK	34	96	1
BRK	34	192	0
BRK	34	288	7
TAP	35	0	1
TAP	35	48	0
TAP	35	144	3
TAP	35	240	6
TAP	35	288	7
TAP	35	336	6
TAP	36	0	5
TAP	36	48	4
TAP	36	144	7
TAP	36	240	2
TAP	36	288	3
TAP	36	336	2
TAP	37	0	1
TAP	37	48	0
TAP	37	144	2
TAP	37	240	5
TAP	37	288	4
TAP	37	336	5
TAP	38	0	6
TAP	38	48	7
TAP	38	144	3
TAP	38	144	4
TAP	38	192	3
TAP	38	216	4
TAP	38	240	3
TAP	38	264	4
TAP	38	288	3
TAP	39	0	4
TAP	39	48	7
TAP	39	144	5
TAP	39	144	6
TAP	39	240	6
TAP	39	288	5
TAP	39	336	4
TAP	40	0	3
TAP	40	48	0
TAP	40	144	1
TAP	40	144	2
TAP	40	240	1
TAP	40	288	2
TAP	40	336	3
TAP	41	0	3
TAP	41	48	6
TAP	41	144	4
TAP	41	144	5
TAP	41	240	3
TAP	41	288	2
TAP	41	336	1
STR	42	0	0
SI_	42	0	0	96	48	3
STR	42	96	7
SI_	42	96	7	96	48	4
STR	42	192	1
SI_	42	192	1	96	48	5
TAP	43	0	2
TAP	43	48	3
TAP	43	96	2
TAP	43	192	5
TAP	43	240	4
TAP	43	288	5
TAP	44	0	2
TAP	44	48	3
TAP	44	96	0
TAP	44	144	7
TAP	44	192	4
TAP	44	240	5
BRK	44	288	2
TAP	45	0	5
TAP	45	48	4
TAP	45	96	6
TAP	45	192	2
TAP	45	240	3
TAP	45	288	1
TAP	46	0	5
TAP	46	48	4
TAP	46	96	7
TAP	46	144	0
TAP	46	192	3
TAP	46	240	2
BRK	46	288	5
TAP	47	0	2
TAP	47	48	3
TAP	47	96	0
TAP	47	144	7
TAP	47	192	4
TAP	47	240	5
TAP	47	288	1
TAP	47	288	6
TAP	48	0	5
TAP	48	48	4
TAP	48	96	7
TAP	48	144	0
TAP	48	192	3
TAP	48	240	2
TAP	48	288	1
TAP	48	288	6
TAP	49	0	2
TAP	49	0	3
TAP	49	48	2
TAP	49	48	3
TAP	49	96	4
TAP	49	96	5
TAP	49	144	4
TAP	49	144	5
TAP	49	192	1
TAP	49	192	3
TAP	49	240	1
TAP	49	240	3
TAP	49	288	4
TAP	49	288	6
TAP	49	336	4
TAP	49	336	6
TAP	50	0	3
TAP	50	0	4
BRK	50	96	1
BRK	50	96	2
BRK	50	192	0
BRK	50	192	7
BRK	50	288	5
BRK	50	288	6
TAP	51	0	2
TAP	51	0	3
TAP	51	48	2
TAP	51	96	2
TAP	51	144	2
BRK	51	144	3
TAP	51	192	2
TAP	51	240	2
TAP	51	288	2
BRK	51	288	4
TAP	51	336	2
TAP	52	0	2
TAP	52	0	3
TAP	52	48	2
TAP	52	96	2
TAP	52	144	2
BRK	52	144	3
TAP	52	192	2
TAP	52	240	2
TAP	52	288	2
BRK	52	288	4
TAP	52	336	2
TAP	53	0	2
TAP	53	0	3
TAP	53	48	2
TAP	53	96	2
TAP	53	144	2
BRK	53	144	3
TAP	53	192	2
TAP	53	240	2
TAP	53	288	2
BRK	53	288	4
TAP	53	336	2
STR	54	0	7
SI_	54	0	7	96	48	3
STR	54	192	0
SI_	54	192	0	96	48	4
TAP	55	0	4
TAP	55	0	5
TAP	55	48	5
TAP	55	96	5
BRK	55	144	4
TAP	55	144	5
TAP	55	192	5
TAP	55	240	5
BRK	55	288	3
TAP	55	288	5
TAP	55	336	5
TAP	56	0	4
TAP	56	0	5
TAP	56	48	5
TAP	56	96	5
BRK	56	144	4
TAP	56	144	5
TAP	56	192	5
TAP	56	240	5
BRK	56	288	3
TAP	56	288	5
TAP	56	336	5
TAP	57	0	4
TAP	57	0	5
TAP	57	48	5
TAP	57	96	5
BRK	57	144	4
TAP	57	144	5
TAP	57	192	5
TAP	57	240	5
BRK	57	288	3
TAP	57	288	5
TAP	57	336	5
BRK	58	0	0
BRK	58	96	2
BRK	58	192	4
BRK	58	288	6
TAP	59	0	2
TAP	59	0	3
TAP	59	96	4
TAP	59	96	5
TAP	59	192	3
TAP	59	192	4
TAP	59	240	3
TAP	59	240	4
TAP	59	288	3
TAP	59	288	4
TAP	60	0	0
TAP	60	0	7
TAP	60	48	0
TAP	60	48	7
TAP	60	96	1
TAP	60	96	6
TAP	60	144	1
TAP	60	144	6
TAP	60	192	2
TAP	60	192	5
TAP	60	240	2
TAP	60	240	5
TAP	60	288	1
TAP	60	288	6
TAP	61	0	2
TAP	61	0	4
TAP	61	96	3
TAP	61	96	5
TAP	61	192	2
TAP	61	192	3
TAP	61	240	4
TAP	61	240	5
TAP	61	288	3
TAP	61	288	4
TAP	62	0	3
TAP	62	0	4
TAP	62	48	3
TAP	62	48	4
TAP	62	96	3
TAP	62	96	4
TAP	62	144	3
TAP	62	144	4
TAP	62	192	1
TAP	62	192	6
TAP	62	264	1
TAP	62	264	6
TAP	62	336	0
TAP	62	336	7
TAP	63	0	0
TAP	63	0	4
TAP	63	96	3
TAP	63	96	7
TAP	63	192	1
TAP	63	192	5
TAP	63	240	2
TAP	63	240	6
TAP	63	288	3
TAP	63	288	7
TAP	64	0	1
TAP	64	0	6
TAP	64	48	2
TAP	64	72	3
TAP	64	96	2
TAP	64	144	5
TAP	64	192	4
TAP	64	192	5
TAP	64	240	4
TAP	64	240	5
TAP	64	288	4
TAP	64	288	5
TAP	65	0	0
TAP	65	0	1
TAP	65	48	2
TAP	65	48	7
TAP	65	96	3
TAP	65	96	6
TAP	65	192	6
TAP	65	192	7
TAP	65	240	0
TAP	65	240	5
TAP	65	288	1
TAP	65	288	4
BRK	66	0	0
BRK	66	0	7
TAP	67	0	2
TAP	67	0	5
TAP	67	144	0
TAP	67	192	1
TAP	67	240	0
TAP	67	288	1
TAP	67	336	2
STR	68	0	3
SI_	68	0	3	96	48	7
STR	68	96	4
SI_	68	96	4	96	48	0
STR	68	192	6
SI_	68	192	6	96	48	2
TAP	69	0	5
TAP	69	72	5
TAP	69	96	4
TAP	69	288	0
TAP	69	288	1
TAP	70	0	1
TAP	70	48	0
TAP	70	96	7
HLD	70	144	6	96
TAP	70	240	5
TAP	70	288	4
TAP	70	336	3
TAP	71	0	2
TAP	71	144	0
TAP	71	144	4
TAP	71	192	1
TAP	71	192	5
TAP	71	240	2
TAP	71	240	6
TAP	71	288	3
TAP	71	288	7
TAP	71	336	0
TAP	71	336	4
STR	72	0	3
SI_	72	0	3	96	48	6
STR	72	96	4
SI_	72	96	4	96	48	1
STR	72	192	5
SUR	72	192	5	96	48	2
TAP	73	0	3
HLD	73	72	3	360
STR	73	96	4
SUL	73	96	4	96	144	7
TAP	74	48	7
TAP	74	96	6
TAP	74	144	5
TAP	74	192	0
TAP	74	240	1
TAP	74	288	2
TAP	74	336	5
HLD	75	0	2	144
TAP	75	144	1
TAP	75	192	0
TAP	75	240	7
TAP	75	288	6
TAP	75	336	5
STR	76	0	4
SI_	76	0	4	96	48	0
TAP	76	96	2
STR	76	192	2
SI_	76	192	2	96	48	6
TAP	76	288	0
STR	77	0	0
SCL	77	0	0	96	48	5
TAP	77	96	4
STR	77	192	4
SCL	77	192	4	96	48	1
TAP	77	288	7
BRK	78	0	7
STR	78	192	0
SI_	78	192	0	96	48	4
TAP	79	0	1
STR	79	48	0
SUL	79	48	0	96	48	3
TAP	79	240	4
TAP	79	288	4
TAP	79	336	5
TAP	80	0	6
STR	80	48	7
SUR	80	48	7	96	48	4
TAP	80	240	3
TAP	80	288	2
TAP	80	336	3
TAP	81	0	2
STR	81	48	1
SCL	81	48	1	96	48	6
TAP	81	144	5
STR	81	192	5
SCR	81	192	5	96	48	0
STR	82	48	0
SI_	82	48	0	96	48	4
STR	82	48	1
SI_	82	48	1	96	48	5
TAP	82	240	6
TAP	82	240	7
TAP	82	336	2
TAP	82	336	3
STR	83	0	0
SV_	83	0	0	96	48	2
TAP	83	96	4
STR	83	144	4
SV_	83	144	4	96	48	6
TAP	83	240	1
STR	83	288	1
SV_	83	288	1	96	48	3
TAP	84	0	7
STR	84	48	7
SV_	84	48	7	96	48	5
TAP	84	144	0
TAP	84	192	0
TAP	84	288	7
TAP	84	312	0
TAP	84	336	7
TAP	84	360	0
STR	85	0	7
SCR	85	0	7	96	288	4
BRK	86	192	0
BRK	86	240	0

T_REC_TAP	435
T_REC_BRK	36
T_REC_XTP	0
T_REC_HLD	29
T_REC_XHO	0
T_REC_STR	31
T_REC_BST	0
T_REC_XST	0
T_REC_TTP	0
T_REC_THO	0
T_REC_SLD	31
T_REC_ALL	562
T_NUM_TAP	466
T_NUM_BRK	36
T_NUM_HLD	29
T_NUM_SLD	31
T_NUM_ALL	562
T_JUDGE_TAP	502
T_JUDGE_HLD	125
T_JUDGE_SLD	31
T_JUDGE_ALL	658
TTM_EACHPAIRS	141
TTM_SCR_TAP	233000
TTM_SCR_BRK	93600
TTM_SCR_HLD	29000
TTM_SCR_SLD	46500
TTM_SCR_ALL	402100
TTM_SCR_S	386550
TTM_SCR_SS	398500
TTM_RAT_ACV	10090

