VERSION	0.00.00	1.03.00
FES_MODE	0
BPM_DEF	180.000	180.000	180.000	180.000
MET_DEF	4	4
RESOLUTION	384
CLK_DEF	384
COMPATIBLE_CODE	MA2

BPM	0	0	180.000
MET	0	0	4	4

HLD	1	0	1	768
HLD	3	0	6	384
HLD	4	0	0	384
HLD	5	0	7	384
HLD	6	0	2	384
HLD	7	0	5	768
TAP	10	0	7
BRK	10	96	0
BRK	10	192	0
BRK	10	288	0
TAP	11	0	7
TAP	11	96	6
TAP	11	192	5
TAP	11	288	4
TAP	12	0	0
TAP	12	96	1
TAP	12	192	2
TAP	12	288	3
HLD	13	0	6	192
HLD	13	192	7	192
HLD	14	0	0	192
HLD	14	192	1	192
TAP	15	0	2
TAP	15	96	2
TAP	15	192	3
TAP	15	288	3
TAP	16	0	4
TAP	16	96	4
TAP	16	192	5
TAP	16	288	5
STR	17	0	6
SCR	17	0	6	96	144	0
TAP	18	0	3
TAP	18	96	3
TAP	18	192	4
TAP	18	288	4
TAP	19	0	1
TAP	19	96	1
HLD	19	192	1	96
TAP	19	288	2
TAP	20	0	6
TAP	20	96	6
HLD	20	192	6	96
TAP	20	288	5
TAP	21	0	2
TAP	21	96	3
TAP	21	192	1
TAP	21	288	3
TAP	22	0	5
TAP	22	96	4
TAP	22	192	6
TAP	22	288	4
TAP	23	0	6
TAP	23	96	6
TAP	23	192	4
TAP	23	288	4
TAP	24	0	2
TAP	24	96	2
TAP	24	192	0
TAP	24	288	0
STR	25	0	7
SI_	25	0	7	96	96	4
STR	25	192	0
SI_	25	192	0	96	96	3
STR	26	0	6
SI_	26	0	6	96	96	2
BRK	26	192	1
TAP	27	0	2
TAP	27	96	3
TAP	27	192	2
TAP	27	288	3
TAP	28	0	4
TAP	28	96	5
TAP	28	192	4
TAP	28	288	5
TAP	29	0	6
TAP	29	96	7
TAP	29	192	0
TAP	29	288	1
TAP	30	0	2
TAP	30	96	3
TAP	30	192	4
TAP	30	288	5
TAP	31	0	2
TAP	31	96	2
TAP	31	192	2
TAP	31	288	2
TAP	31	288	3
TAP	32	0	5
TAP	32	96	5
TAP	32	192	5
TAP	32	288	4
TAP	32	288	5
TAP	33	0	2
TAP	33	0	3
TAP	33	96	4
TAP	33	96	5
TAP	33	192	2
TAP	33	192	3
TAP	33	288	4
TAP	33	288	5
TAP	34	0	1
TAP	34	0	6
BRK	34	96	0
BRK	34	192	0
BRK	34	288	0
HLD	35	0	2	288
TAP	35	96	4
TAP	35	192	4
TAP	35	288	4
HLD	36	0	5	288
TAP	36	96	3
TAP	36	192	3
TAP	36	288	3
TAP	37	0	5
TAP	37	96	5
TAP	37	192	1
TAP	37	288	1
TAP	38	0	1
TAP	38	0	5
TAP	38	96	2
TAP	38	96	6
BRK	38	192	3
BRK	38	192	7
HLD	39	0	1	288
TAP	39	96	3
TAP	39	192	3
TAP	39	288	3
HLD	40	0	6	288
TAP	40	96	4
TAP	40	192	4
TAP	40	288	4
TAP	41	0	6
TAP	41	96	6
TAP	41	192	2
TAP	41	288	2
TAP	42	0	2
TAP	42	0	6
TAP	42	96	2
TAP	42	96	6
TAP	42	192	1
TAP	42	192	5
BRK	42	288	0
BRK	42	288	4
STR	43	0	0
SUL	43	0	0	96	192	3
STR	44	0	7
SUR	44	0	7	96	192	4
STR	45	0	2
SUL	45	0	2	96	192	5
STR	46	0	6
SUL	46	0	6	96	192	1
HLD	47	0	3	288
HLD	48	0	4	288
HLD	49	0	0	96
HLD	49	192	7	96
TAP	50	0	1
TAP	50	0	6
TAP	50	96	3
TAP	50	96	4
TAP	50	192	3
TAP	50	192	4
BRK	50	288	2
BRK	50	288	5
TAP	51	0	2
TAP	51	96	2
TAP	51	192	2
TAP	51	288	1
TAP	51	288	3
TAP	52	0	5
TAP	52	96	5
TAP	52	192	5
TAP	52	288	4
TAP	52	288	6
TAP	53	0	3
TAP	53	96	4
TAP	53	192	3
TAP	53	288	2
TAP	53	288	5
TAP	54	0	3
TAP	54	0	4
TAP	54	96	2
TAP	54	96	3
TAP	54	192	4
TAP	54	192	5
BRK	54	288	1
BRK	54	288	6
TAP	55	0	1
TAP	55	96	1
TAP	55	192	1
TAP	55	288	0
TAP	55	288	2
TAP	56	0	6
TAP	56	96	6
TAP	56	192	6
TAP	56	288	5
TAP	56	288	7
TAP	57	0	0
TAP	57	96	7
TAP	57	192	0
TAP	57	288	7
TAP	58	0	0
TAP	58	0	1
TAP	58	96	6
TAP	58	96	7
TAP	58	192	1
TAP	58	192	6
TAP	58	288	0
TAP	58	288	7
TAP	59	0	0
TAP	59	96	1
TAP	59	192	7
TAP	59	240	7
TAP	59	288	7
TAP	60	0	0
TAP	60	48	0
TAP	60	96	7
TAP	60	144	7
TAP	60	192	0
TAP	60	240	7
TAP	60	288	0
TAP	61	0	7
TAP	61	96	6
TAP	61	192	0
TAP	61	240	0
TAP	61	288	0
TAP	62	0	7
TAP	62	48	7
TAP	62	96	0
TAP	62	144	0
HLD	62	192	7	96
TAP	63	0	0
TAP	63	96	1
TAP	63	192	0
TAP	63	192	1
TAP	63	240	0
TAP	63	240	1
TAP	63	288	0
TAP	63	288	1
TAP	64	0	0
TAP	64	0	1
TAP	64	96	2
TAP	64	96	3
TAP	64	192	4
TAP	64	192	5
TAP	64	288	6
TAP	64	288	7
TAP	65	0	6
TAP	65	48	6
TAP	65	96	6
TAP	65	192	1
TAP	65	240	1
TAP	65	288	1
STR	66	0	0
SI_	66	0	0	96	96	4
STR	66	0	7
SI_	66	0	7	96	96	3
BRK	67	0	2
TAP	67	96	2
TAP	67	96	3
TAP	67	192	3
TAP	67	288	2
TAP	67	288	3
TAP	68	0	5
TAP	68	96	4
TAP	68	96	5
TAP	68	192	4
TAP	68	288	4
TAP	68	288	5
TAP	69	0	2
TAP	69	96	2
TAP	69	192	1
TAP	69	288	0
TAP	69	288	1
TAP	70	0	5
TAP	70	96	5
TAP	70	192	6
TAP	70	288	6
TAP	70	288	7
TAP	71	0	1
TAP	71	0	5
TAP	71	96	2
TAP	71	96	6
TAP	71	192	3
TAP	71	192	7
TAP	72	0	3
TAP	72	0	7
TAP	72	96	2
TAP	72	96	6
TAP	72	192	1
TAP	72	192	5
TAP	72	288	0
TAP	72	288	4
STR	73	0	0
SCR	73	0	0	96	144	3
STR	73	0	7
SCL	73	0	7	96	144	4
TAP	74	0	3
TAP	74	96	1
TAP	74	192	7
TAP	74	288	5
HLD	75	0	2	192
TAP	75	192	3
TAP	75	288	3
HLD	76	0	5	192
TAP	76	192	4
TAP	76	288	4
TAP	77	0	3
TAP	77	0	7
TAP	77	96	3
TAP	77	96	7
TAP	77	192	1
TAP	77	192	5
TAP	77	288	1
TAP	77	288	5
TAP	78	0	0
TAP	78	0	7
TAP	78	192	0
TAP	78	192	1
TAP	78	288	6
TAP	78	288	7
STR	79	0	0
SUL	79	0	0	96	144	3
STR	80	0	7
SUR	80	0	7	96	144	4
TAP	81	0	0
TAP	81	0	2
TAP	81	192	5
TAP	81	192	7
TAP	82	0	0
TAP	82	0	4
TAP	82	96	1
TAP	82	96	5
TAP	82	192	2
TAP	82	192	6
TAP	82	288	3
TAP	82	288	7
STR	83	0	0
SCL	83	0	0	96	96	6
STR	83	192	4
SCL	83	192	4	96	96	2
STR	84	0	0
SI_	84	0	0	96	96	4
STR	84	192	7
SI_	84	192	7	96	96	3
BRK	85	0	0

T_REC_TAP	270
T_REC_BRK	17
T_REC_XTP	0
T_REC_HLD	23
T_REC_XHO	0
T_REC_STR	18
T_REC_BST	0
T_REC_XST	0
T_REC_TTP	0
T_REC_THO	0
T_REC_SLD	18
T_REC_ALL	346
T_NUM_TAP	288
T_NUM_BRK	17
T_NUM_HLD	23
T_NUM_SLD	18
T_NUM_ALL	346
T_JUDGE_TAP	305
T_JUDGE_HLD	134
T_JUDGE_SLD	18
T_JUDGE_ALL	457
TTM_EACHPAIRS	66
TTM_SCR_TAP	144000
TTM_SCR_BRK	44200
TTM_SCR_HLD	23000
TTM_SCR_SLD	27000
TTM_SCR_ALL	238200
TTM_SCR_S	229450
TTM_SCR_SS	236500
TTM_RAT_ACV	10071

