VERSION	0.00.00	1.03.00
FES_MODE	0
BPM_DEF	180.000	180.000	180.000	180.000
MET_DEF	4	4
RESOLUTION	384
CLK_DEF	384
COMPATIBLE_CODE	MA2

BPM	0	0	180.000
MET	0	0	4	4

TAP	11	0	0
TAP	11	96	0
TAP	11	192	0
TAP	12	0	7
TAP	12	96	7
TAP	12	192	7
HLD	13	0	0	192
HLD	14	0	7	192
TAP	15	0	6
TAP	15	96	6
TAP	15	192	6
TAP	16	0	5
TAP	16	96	5
TAP	16	192	5
HLD	17	0	4	384
TAP	18	192	4
TAP	18	288	4
TAP	19	0	3
TAP	19	96	3
TAP	19	192	3
TAP	20	0	4
TAP	20	96	4
TAP	20	192	4
HLD	21	0	3	192
HLD	22	0	4	192
TAP	23	0	4
TAP	23	0	5
TAP	24	0	2
TAP	24	0	3
TAP	25	0	0
TAP	25	0	1
TAP	25	192	0
TAP	25	192	1
TAP	26	0	6
TAP	26	0	7
TAP	26	192	6
TAP	26	192	7
TAP	27	0	0
TAP	27	288	1
TAP	28	0	1
TAP	28	288	2
TAP	29	0	2
TAP	29	288	3
TAP	30	0	3
TAP	30	288	4
TAP	31	0	4
TAP	31	288	5
TAP	32	0	5
TAP	32	288	6
TAP	33	0	6
TAP	33	288	7
BRK	34	0	7
TAP	35	0	7
TAP	35	96	7
TAP	35	288	6
TAP	36	0	6
TAP	36	96	6
TAP	36	288	5
TAP	37	0	5
TAP	37	96	5
TAP	37	288	4
TAP	38	0	4
TAP	38	96	4
TAP	39	0	3
TAP	39	96	3
TAP	39	288	2
TAP	40	0	2
TAP	40	96	2
TAP	40	288	1
TAP	41	0	1
TAP	41	96	1
TAP	41	288	0
BRK	42	0	0
STR	43	0	1
SI_	43	0	1	96	192	6
STR	45	0	5
SI_	45	0	5	96	192	1
STR	47	0	2
SI_	47	0	2	96	192	6
STR	49	0	5
SI_	49	0	5	96	192	2
TAP	51	0	2
TAP	51	192	2
TAP	51	192	3
TAP	52	0	3
TAP	52	192	3
TAP	52	192	4
TAP	53	0	4
TAP	53	192	4
TAP	53	192	5
TAP	54	0	6
TAP	54	96	6
TAP	54	192	6
TAP	55	0	5
TAP	55	192	4
TAP	55	192	5
TAP	56	0	4
TAP	56	192	3
TAP	56	192	4
TAP	57	0	3
TAP	57	192	2
TAP	57	192	3
TAP	58	0	1
TAP	58	96	1
TAP	58	192	1
TAP	59	0	0
TAP	59	96	0
TAP	59	192	0
TAP	60	0	7
TAP	60	96	7
TAP	60	192	7
TAP	60	288	7
TAP	61	0	0
TAP	61	96	0
TAP	61	192	0
TAP	62	0	7
TAP	62	96	7
BRK	62	192	0
TAP	63	0	1
TAP	63	96	1
TAP	63	192	0
TAP	64	0	7
TAP	64	96	7
TAP	64	192	6
TAP	64	288	6
TAP	65	0	7
TAP	65	96	7
TAP	65	192	0
TAP	66	0	7
TAP	66	96	0
BRK	66	192	7
TAP	67	0	0
TAP	67	96	0
TAP	67	192	1
TAP	68	0	1
TAP	68	96	1
TAP	68	192	2
TAP	69	0	2
TAP	69	96	2
TAP	69	192	3
TAP	70	0	3
TAP	70	96	3
TAP	70	192	4
TAP	71	0	4
TAP	71	96	4
TAP	71	192	5
TAP	72	0	5
TAP	72	96	5
TAP	72	192	6
HLD	73	0	7	384
TAP	74	192	0
TAP	74	288	0
TAP	75	0	7
TAP	75	96	7
TAP	75	192	6
TAP	76	0	6
TAP	76	96	6
TAP	76	192	5
TAP	77	0	5
TAP	77	96	5
TAP	77	192	4
TAP	78	0	4
TAP	78	96	4
TAP	78	192	3
HLD	79	0	2	192
HLD	80	0	1	192
HLD	81	0	0	192
HLD	82	0	7	192
TAP	83	0	0
TAP	83	96	7
TAP	83	192	0
TAP	83	288	7
TAP	84	0	0
TAP	84	96	7
TAP	84	192	0
TAP	84	288	7
BRK	85	0	0

T_REC_TAP	154
T_REC_BRK	5
T_REC_XTP	0
T_REC_HLD	10
T_REC_XHO	0
T_REC_STR	4
T_REC_BST	0
T_REC_XST	0
T_REC_TTP	0
T_REC_THO	0
T_REC_SLD	4
T_REC_ALL	177
T_NUM_TAP	158
T_NUM_BRK	5
T_NUM_HLD	10
T_NUM_SLD	4
T_NUM_ALL	177
T_JUDGE_TAP	163
T_JUDGE_HLD	48
T_JUDGE_SLD	4
T_JUDGE_ALL	215
TTM_EACHPAIRS	12
TTM_SCR_TAP	79000
TTM_SCR_BRK	13000
TTM_SCR_HLD	10000
TTM_SCR_SLD	6000
TTM_SCR_ALL	108000
TTM_SCR_S	104300
TTM_SCR_SS	107500
TTM_RAT_ACV	10046

