VERSION	0.00.00	1.03.00
FES_MODE	0
BPM_DEF	170.000	170.000	170.000	170.000
MET_DEF	4	4
RESOLUTION	384
CLK_DEF	384
COMPATIBLE_CODE	MA2

BPM	0	0	170.000
MET	0	0	4	4

STR	2	0	4
SI_	2	0	4	96	288	1
STR	3	0	5
SI_	3	0	5	96	288	0
STR	4	0	1
SUL	4	0	1	96	288	3
STR	5	0	0
SUR	5	0	0	96	288	6
STR	6	0	3
SSR	6	0	3	96	288	7
STR	7	0	6
SSL	7	0	6	96	288	2
STR	8	0	0
SSL	8	0	0	96	288	4
TAP	9	0	7
TAP	9	48	6
TAP	9	144	0
TAP	9	192	1
BRK	9	288	0
HLD	10	0	1	96
TAP	10	96	3
HLD	10	144	3	96
HLD	10	240	5	96
STR	10	336	7
SI_	10	336	7	96	48	3
BRK	11	48	7
TAP	11	192	1
TAP	11	240	0
TAP	11	288	7
TAP	11	336	6
HLD	12	0	6	96
TAP	12	96	4
HLD	12	144	4	96
HLD	12	240	2	96
STR	12	336	0
SI_	12	336	0	96	48	4
BRK	13	48	0
HLD	14	0	0	144
HLD	14	144	1	144
HLD	14	288	2	96
HLD	15	0	7	144
HLD	15	144	6	144
STR	15	288	5
SUR	15	288	5	96	192	2
HLD	15	336	5	336
STR	16	288	2
SCR	16	288	2	96	288	1
TAP	18	0	0
TAP	18	48	7
TAP	18	96	6
TAP	18	144	2
TAP	18	168	3
TAP	18	216	5
TAP	18	240	4
TAP	18	288	0
TAP	18	336	7
TAP	19	0	4
TAP	19	48	3
TAP	19	96	2
TAP	19	144	5
TAP	19	168	4
TAP	19	216	2
TAP	19	240	3
TAP	19	288	6
TAP	19	336	1
TAP	20	0	4
TAP	20	48	3
TAP	20	96	5
TAP	20	144	2
TAP	20	168	3
TAP	20	216	5
TAP	20	240	4
TAP	20	288	2
TAP	20	336	5
TAP	21	0	3
TAP	21	48	4
TAP	21	96	2
TAP	21	144	5
TAP	21	168	4
TAP	21	216	2
TAP	21	240	3
TAP	21	288	4
TAP	21	312	3
TAP	21	336	4
TAP	22	0	1
TAP	22	48	2
TAP	22	96	3
TAP	22	144	7
TAP	22	168	0
TAP	22	216	4
TAP	22	240	3
TAP	22	288	2
TAP	22	288	6
TAP	22	336	1
TAP	22	336	5
TAP	23	0	6
TAP	23	48	5
TAP	23	96	4
TAP	23	144	0
TAP	23	168	7
TAP	23	216	3
TAP	23	240	4
TAP	23	288	1
TAP	23	288	5
TAP	23	336	2
TAP	23	336	6
TAP	24	0	0
TAP	24	48	5
TAP	24	96	2
TAP	24	144	4
TAP	24	168	3
TAP	24	216	6
TAP	24	240	1
TAP	24	288	2
TAP	24	288	5
TAP	24	336	0
TAP	24	336	7
TAP	25	0	0
TAP	25	0	4
TAP	25	48	1
TAP	25	48	5
TAP	25	96	2
TAP	25	96	6
HLD	25	144	3	144
HLD	25	144	7	144
TAP	26	0	1
TAP	26	24	0
TAP	26	72	4
TAP	26	96	5
TAP	26	144	7
TAP	26	168	6
TAP	26	216	2
TAP	26	240	3
TAP	26	288	0
TAP	26	288	4
TAP	26	336	3
TAP	26	336	7
TAP	27	0	6
TAP	27	24	7
TAP	27	72	3
TAP	27	96	2
TAP	27	144	0
TAP	27	168	1
TAP	27	216	5
TAP	27	240	4
TAP	27	288	1
TAP	27	288	5
TAP	27	336	2
TAP	27	336	6
TAP	28	0	5
TAP	28	24	4
TAP	28	72	0
TAP	28	96	1
TAP	28	144	5
TAP	28	168	4
TAP	28	216	0
TAP	28	240	1
TAP	28	288	6
TAP	28	288	7
TAP	28	336	2
TAP	28	336	3
TAP	29	0	2
TAP	29	24	3
TAP	29	72	7
TAP	29	96	6
TAP	29	144	2
TAP	29	168	3
TAP	29	216	7
TAP	29	240	6
TAP	29	288	0
TAP	29	312	4
TAP	29	336	1
TAP	29	360	5
TAP	30	0	1
TAP	30	24	0
TAP	30	72	5
TAP	30	96	4
TAP	30	144	2
TAP	30	168	3
TAP	30	216	6
TAP	30	240	7
TAP	30	288	0
TAP	30	288	4
TAP	30	336	3
TAP	30	336	7
TAP	31	0	6
TAP	31	24	7
TAP	31	72	2
TAP	31	96	3
TAP	31	144	5
TAP	31	168	4
TAP	31	216	1
TAP	31	240	0
TAP	31	288	1
TAP	31	288	5
TAP	31	336	2
TAP	31	336	6
TAP	32	0	2
TAP	32	24	3
TAP	32	72	5
TAP	32	96	4
TAP	32	144	2
TAP	32	168	3
TAP	32	216	5
TAP	32	240	4
TAP	32	288	0
TAP	32	288	7
TAP	32	336	1
TAP	32	336	6
TAP	33	0	3
HLD	33	0	7	144
TAP	33	72	5
BRK	33	144	1
TAP	34	0	3
TAP	34	0	4
TAP	34	144	1
TAP	34	192	0
TAP	34	288	6
TAP	34	336	7
STR	35	48	0
SI_	35	48	0	96	48	4
TAP	35	144	0
STR	35	192	7
SI_	35	192	7	96	48	3
TAP	35	288	7
TAP	36	0	2
TAP	36	0	5
TAP	36	144	6
TAP	36	192	7
TAP	36	288	1
TAP	36	336	0
STR	37	48	6
SI_	37	48	6	96	48	3
TAP	37	144	6
HLD	37	192	1	96
HLD	38	0	6	144
HLD	38	144	3	144
STR	38	288	1
SI_	38	288	1	96	48	4
STR	39	0	7
SI_	39	0	7	96	48	3
STR	39	96	0
SI_	39	96	0	96	48	4
STR	39	192	6
SI_	39	192	6	96	48	3
HLD	40	0	0	384
TAP	40	144	2
TAP	40	288	6
TAP	41	0	4
STR	41	192	0
SI_	41	192	0	96	48	5
STR	41	192	1
SI_	41	192	1	96	48	4
TAP	42	0	6
TAP	42	48	7
TAP	42	96	6
TAP	42	144	5
TAP	42	192	6
TAP	42	240	7
TAP	42	288	6
TAP	42	336	5
BRK	43	0	6
TAP	43	0	7
TAP	43	48	7
BRK	43	96	5
TAP	43	96	7
TAP	43	144	7
BRK	43	192	4
TAP	43	192	7
TAP	43	240	7
BRK	43	288	3
TAP	43	288	7
TAP	43	336	7
TAP	44	0	1
TAP	44	48	0
TAP	44	96	1
TAP	44	144	2
TAP	44	192	1
TAP	44	240	0
TAP	44	288	1
TAP	44	336	2
TAP	45	0	0
BRK	45	0	1
TAP	45	48	0
TAP	45	96	0
BRK	45	96	2
TAP	45	144	0
TAP	45	192	0
BRK	45	192	3
TAP	45	240	0
TAP	45	288	0
BRK	45	288	4
STR	46	0	3
SI_	46	0	3	96	192	0
TAP	46	0	4
HLD	46	144	7	144
TAP	47	96	2
STR	47	96	3
SI_	47	96	3	96	48	7
TAP	47	192	0
STR	47	288	4
SI_	47	288	4	96	48	0
TAP	47	288	5
TAP	48	0	7
TAP	48	96	0
STR	48	96	7
SCL	48	96	7	96	48	4
TAP	48	192	2
STR	48	288	0
SCR	48	288	0	96	48	3
TAP	48	288	7
TAP	49	0	5
TAP	49	144	0
TAP	49	144	7
TAP	49	192	2
TAP	49	192	5
BRK	50	0	0
TAP	50	24	1
TAP	50	48	2
TAP	50	72	3
BRK	50	96	7
TAP	50	120	6
TAP	50	144	5
TAP	50	168	4
BRK	50	192	1
TAP	50	216	2
TAP	50	240	3
TAP	50	264	4
BRK	50	288	6
TAP	50	312	5
TAP	50	336	4
TAP	50	360	3
STR	51	0	1
SI_	51	0	1	96	48	5
TAP	51	96	1
HLD	51	144	7	96
STR	51	240	0
SI_	51	240	0	96	48	4
STR	51	336	7
SI_	51	336	7	96	48	3
TAP	52	48	2
TAP	52	144	2
STR	52	240	0
SV_	52	240	0	96	48	2
STR	53	0	5
SI_	53	0	5	96	48	1
TAP	53	96	5
HLD	53	144	2	96
STR	53	240	6
SCR	53	240	6	96	48	1
STR	53	336	2
SCR	53	336	2	96	48	5
TAP	54	144	1
TAP	54	192	2
TAP	54	240	3
TAP	54	288	4
TAP	54	336	5
STR	55	0	6
SI_	55	0	6	96	48	2
TAP	55	48	6
STR	55	96	7
SI_	55	96	7	96	48	3
TAP	55	144	7
STR	55	192	0
SI_	55	192	0	96	48	4
TAP	55	240	0
STR	55	288	1
SI_	55	288	1	96	48	5
TAP	55	336	1
STR	56	0	2
SI_	56	0	2	96	48	6
TAP	56	48	2
STR	56	96	3
SI_	56	96	3	96	48	7
TAP	56	144	3
STR	56	192	4
SI_	56	192	4	96	48	0
TAP	56	240	4
STR	56	288	5
SI_	56	288	5	96	48	1
TAP	56	336	5
TAP	57	144	7
HLD	57	192	0	192
HLD	57	192	6	192
TAP	58	192	0
TAP	58	192	4
TAP	58	240	1
TAP	58	240	5
TAP	58	288	2
TAP	58	288	6
TAP	58	336	3
TAP	58	336	7
STR	59	0	0
SI_	59	0	0	96	48	4
TAP	59	144	5
STR	59	240	5
SCR	59	240	5	96	48	0
STR	59	336	1
SCL	59	336	1	96	48	6
BRK	60	48	3
STR	60	192	0
SI_	60	192	0	96	48	3
STR	60	192	7
SI_	60	192	7	96	48	4
TAP	60	240	1
TAP	60	240	6
TAP	61	0	2
TAP	61	96	1
TAP	61	96	3
TAP	61	144	5
STR	61	144	7
SV_	61	144	7	96	48	2
STR	61	240	3
SV_	61	240	3	96	48	6
STR	61	336	1
SI_	61	336	1	96	48	5
BRK	62	48	7
TAP	62	192	2
TAP	62	240	3
TAP	62	288	4
TAP	62	336	5
STR	63	0	6
SCR	63	0	6	96	96	1
STR	63	96	1
SCR	63	96	1	96	96	4
STR	63	192	4
SUR	63	192	4	96	96	3
STR	63	288	3
SCR	63	288	3	96	96	6
STR	64	0	6
SCR	64	0	6	96	96	1
STR	64	96	1
SCR	64	96	1	96	96	4
STR	64	192	4
SUR	64	192	4	96	48	3
TAP	65	0	2
TAP	65	24	5
TAP	65	48	2
TAP	65	72	5
TAP	65	96	3
TAP	65	120	4
TAP	65	144	3
TAP	65	168	4
TAP	65	192	0
TAP	65	216	7
TAP	65	240	0
TAP	65	264	7
TAP	65	288	1
TAP	65	312	6
TAP	65	336	1
TAP	65	360	6
STR	66	0	0
SCR	66	0	0	96	96	3
STR	66	96	3
SCR	66	96	3	96	96	6
STR	66	192	6
SUR	66	192	6	96	48	5
TAP	67	0	0
TAP	67	48	7
TAP	67	96	6
TAP	67	144	5
TAP	67	288	0
TAP	67	336	7
TAP	68	0	0
TAP	68	0	4
TAP	68	48	2
TAP	68	48	6
TAP	68	96	1
TAP	68	96	5
TAP	68	144	0
TAP	68	144	4
TAP	68	288	0
HLD	69	0	7	144
STR	69	72	1
SI_	69	72	1	96	24	5
TAP	69	144	1
HLD	69	192	6	144
STR	69	264	0
SI_	69	264	0	96	24	4
TAP	69	336	0
HLD	70	0	5	144
STR	70	72	2
SI_	70	72	2	96	24	6
TAP	70	144	2
TAP	70	288	0
TAP	71	0	2
TAP	71	32	3
TAP	71	64	1
TAP	71	96	5
TAP	71	128	4
TAP	71	160	6
TAP	71	192	0
TAP	71	192	7
TAP	71	240	1
TAP	71	240	6
TAP	71	288	2
TAP	71	288	5
TAP	71	336	3
TAP	71	336	4
TAP	72	0	2
TAP	72	0	5
TAP	72	48	1
TAP	72	72	4
TAP	72	96	3
TAP	72	120	6
TAP	72	144	0
TAP	72	192	7
TAP	72	216	0
TAP	72	240	6
TAP	72	264	1
TAP	72	288	5
TAP	72	312	2
TAP	72	336	4
TAP	72	360	3
HLD	73	0	6	144
TAP	73	72	4
TAP	73	144	1
HLD	73	192	1	144
TAP	73	264	3
TAP	73	336	6
BRK	74	0	0
BRK	74	0	4
BRK	74	72	2
BRK	74	72	6
BRK	74	144	0
BRK	74	144	4
BRK	74	192	3
BRK	74	192	7
BRK	74	264	1
BRK	74	264	5
BRK	74	336	3
BRK	74	336	7

T_REC_TAP	351
T_REC_BRK	30
T_REC_XTP	0
T_REC_HLD	29
T_REC_XHO	0
T_REC_STR	61
T_REC_BST	0
T_REC_XST	0
T_REC_TTP	0
T_REC_THO	0
T_REC_SLD	61
T_REC_ALL	532
T_NUM_TAP	412
T_NUM_BRK	30
T_NUM_HLD	29
T_NUM_SLD	61
T_NUM_ALL	532
T_JUDGE_TAP	442
T_JUDGE_HLD	88
T_JUDGE_SLD	61
T_JUDGE_ALL	591
TTM_EACHPAIRS	65
TTM_SCR_TAP	206000
TTM_SCR_BRK	78000
TTM_SCR_HLD	29000
TTM_SCR_SLD	91500
TTM_SCR_ALL	404500
TTM_SCR_S	389500
TTM_SCR_SS	401500
TTM_RAT_ACV	10074

