VERSION	0.00.00	1.03.00
FES_MODE	0
BPM_DEF	170.000	170.000	170.000	170.000
MET_DEF	4	4
RESOLUTION	384
CLK_DEF	384
COMPATIBLE_CODE	MA2

BPM	0	0	170.000
MET	0	0	4	4

STR	2	0	2
SCL	2	0	2	96	192	6
STR	3	0	5
SCR	3	0	5	96	192	1
STR	4	0	1
SCR	4	0	1	96	192	5
STR	5	0	6
SCL	5	0	6	96	192	2
TAP	6	0	2
STR	6	96	2
SCL	6	96	2	96	192	6
TAP	7	0	5
STR	7	96	5
SCR	7	96	5	96	192	1
TAP	8	0	2
STR	8	96	2
SUL	8	96	2	96	192	5
TAP	9	0	7
TAP	9	49	7
TAP	9	144	0
TAP	9	192	0
BRK	9	288	1
BRK	9	288	6
TAP	10	0	4
TAP	10	96	4
TAP	10	96	5
TAP	10	192	3
TAP	10	288	2
TAP	10	288	3
TAP	11	0	4
TAP	11	96	4
STR	11	96	5
SI_	11	96	5	96	48	0
STR	11	192	1
SI_	11	192	1	96	48	4
TAP	12	0	7
TAP	12	96	6
TAP	12	96	7
TAP	12	192	0
TAP	12	288	0
TAP	12	288	1
TAP	13	0	7
STR	13	96	6
SI_	13	96	6	96	48	3
TAP	13	96	7
STR	13	192	2
SI_	13	192	2	96	48	7
TAP	14	0	5
TAP	14	96	4
TAP	14	96	6
TAP	14	192	2
TAP	14	288	1
TAP	14	288	3
TAP	15	0	6
TAP	15	96	5
TAP	15	96	7
TAP	15	192	1
TAP	15	288	0
TAP	15	288	2
TAP	16	0	6
TAP	16	0	7
TAP	16	96	4
TAP	16	96	6
TAP	16	192	0
TAP	16	192	1
TAP	16	288	1
TAP	16	288	3
TAP	17	0	3
TAP	17	0	6
STR	17	96	4
SCL	17	96	4	96	96	1
STR	17	96	5
SCR	17	96	5	96	96	0
STR	18	0	5
SUR	18	0	5	96	144	1
TAP	18	96	6
TAP	18	192	6
TAP	18	288	6
STR	19	0	2
SUL	19	0	2	96	144	6
TAP	19	96	1
TAP	19	192	1
TAP	19	288	1
STR	20	0	4
SUR	20	0	4	96	144	0
TAP	20	96	5
TAP	20	192	5
TAP	20	288	5
STR	21	0	3
SUL	21	0	3	96	144	7
TAP	21	96	2
TAP	21	192	2
TAP	21	288	2
STR	22	0	7
SUR	22	0	7	96	144	5
TAP	22	96	6
TAP	22	192	6
TAP	22	288	6
STR	23	0	0
SUL	23	0	0	96	144	2
TAP	23	96	1
TAP	23	192	1
TAP	23	288	1
STR	24	0	6
SUR	24	0	6	96	96	2
STR	24	192	1
SUL	24	192	1	96	96	5
TAP	25	0	7
TAP	25	48	7
TAP	25	96	0
TAP	25	96	1
STR	25	192	6
SI_	25	192	6	96	48	2
TAP	26	0	0
TAP	26	48	1
TAP	26	96	2
TAP	26	96	7
TAP	26	192	6
TAP	26	192	7
TAP	26	288	0
TAP	26	288	5
TAP	27	0	2
TAP	27	48	3
TAP	27	96	1
TAP	27	96	4
TAP	27	192	5
TAP	27	240	4
TAP	27	288	3
TAP	27	288	6
TAP	28	0	7
TAP	28	48	6
TAP	28	96	0
TAP	28	96	5
TAP	28	192	0
TAP	28	192	1
TAP	28	288	2
TAP	28	288	7
TAP	29	0	5
TAP	29	48	4
TAP	29	96	3
TAP	29	96	6
TAP	29	192	2
TAP	29	240	3
TAP	29	288	1
TAP	29	288	4
TAP	30	0	5
TAP	30	48	4
TAP	30	96	3
TAP	30	96	6
TAP	30	192	2
TAP	30	192	3
TAP	30	288	1
TAP	30	288	4
TAP	31	0	6
TAP	31	48	7
TAP	31	96	0
TAP	31	96	5
TAP	31	192	0
TAP	31	240	1
TAP	31	288	2
TAP	31	288	7
TAP	32	0	2
TAP	32	48	3
TAP	32	96	1
TAP	32	96	4
TAP	32	192	5
TAP	32	240	4
TAP	32	288	3
TAP	32	336	2
TAP	33	0	1
TAP	33	0	4
TAP	33	72	3
TAP	33	72	6
STR	33	144	0
SCR	33	144	0	96	96	3
STR	33	144	7
SCL	33	144	7	96	96	4
HLD	34	0	6	144
TAP	34	144	5
TAP	34	192	4
TAP	34	288	3
TAP	34	288	5
TAP	34	336	2
TAP	34	336	4
TAP	35	48	0
TAP	35	48	3
TAP	35	144	1
STR	35	192	1
SI_	35	192	1	96	48	5
STR	35	288	7
SI_	35	288	7	96	48	3
HLD	36	0	1	144
TAP	36	144	2
TAP	36	192	3
TAP	36	288	2
TAP	36	288	4
TAP	36	336	3
TAP	36	336	5
TAP	37	48	4
TAP	37	48	7
TAP	37	144	6
STR	37	192	6
SI_	37	192	6	96	48	2
STR	37	288	0
SI_	37	288	0	96	48	4
HLD	38	0	5	144
TAP	38	144	7
TAP	38	192	6
TAP	38	288	0
TAP	38	288	7
TAP	39	0	1
TAP	39	0	6
HLD	39	96	2	96
HLD	39	192	3	96
HLD	39	288	4	96
STR	40	0	5
SCL	40	0	5	96	96	3
STR	40	192	2
SUL	40	192	2	96	96	5
STR	41	0	6
SCR	41	0	6	96	96	1
TAP	41	192	3
TAP	41	288	3
TAP	41	288	4
TAP	42	0	5
TAP	42	48	4
TAP	42	96	3
TAP	42	96	5
TAP	42	192	2
TAP	42	240	3
TAP	42	288	2
TAP	42	288	4
TAP	43	0	6
TAP	43	48	5
TAP	43	96	4
TAP	43	96	5
TAP	43	192	1
TAP	43	240	2
TAP	43	288	2
TAP	43	288	3
TAP	44	0	5
TAP	44	48	4
TAP	44	96	3
TAP	44	96	6
TAP	44	192	2
TAP	44	240	3
TAP	44	288	1
TAP	44	288	4
TAP	45	0	5
TAP	45	48	7
TAP	45	96	6
TAP	45	96	7
TAP	45	192	2
TAP	45	240	0
TAP	45	288	0
TAP	45	288	1
STR	46	0	6
SI_	46	0	6	96	48	4
TAP	46	48	7
TAP	46	96	7
STR	46	192	1
SI_	46	192	1	96	48	3
TAP	46	240	0
TAP	46	288	0
STR	47	0	5
SI_	47	0	5	96	48	7
TAP	47	48	4
TAP	47	96	4
STR	47	192	2
SI_	47	192	2	96	48	0
TAP	47	240	3
TAP	47	288	3
HLD	48	0	6	96
HLD	48	96	5	96
STR	48	192	4
SI_	48	192	4	96	48	0
STR	49	0	7
SCL	49	0	7	96	48	4
STR	49	192	0
SCR	49	192	0	96	48	3
TAP	50	192	0
TAP	50	240	7
TAP	50	288	6
TAP	50	336	5
TAP	51	0	4
TAP	51	96	2
TAP	51	144	2
TAP	51	144	3
TAP	51	240	3
TAP	51	240	6
TAP	51	336	4
TAP	51	336	5
STR	52	48	1
SI_	52	48	1	96	48	4
TAP	52	48	4
TAP	52	192	7
TAP	52	240	0
TAP	52	288	1
TAP	52	336	2
TAP	53	0	3
TAP	53	96	5
TAP	53	144	4
TAP	53	144	5
TAP	53	240	1
TAP	53	240	4
TAP	53	336	2
TAP	53	336	3
TAP	54	48	3
STR	54	48	6
SI_	54	48	6	96	48	3
TAP	54	192	2
TAP	54	240	1
TAP	54	288	0
TAP	54	336	7
STR	55	0	6
SCR	55	0	6	96	48	1
STR	55	192	2
SUL	55	192	2	96	48	5
STR	56	0	7
SI_	56	0	7	96	48	3
STR	56	96	0
SI_	56	96	0	96	48	4
STR	56	192	6
SI_	56	192	6	96	48	3
STR	56	288	1
SI_	56	288	1	96	48	4
STR	57	0	5
SUL	57	0	5	96	192	2
TAP	58	0	0
TAP	58	0	1
TAP	58	96	0
TAP	58	96	5
TAP	58	192	6
TAP	58	192	7
TAP	58	288	2
TAP	58	288	7
TAP	59	0	2
TAP	59	0	3
TAP	59	96	6
STR	59	144	6
SI_	59	144	6	96	48	1
STR	59	336	7
SSR	59	336	7	96	96	3
TAP	60	192	2
TAP	60	288	1
TAP	61	0	0
TAP	61	96	7
TAP	61	144	7
STR	61	240	0
SSL	61	240	0	96	96	4
HLD	62	192	7	96
HLD	62	288	6	96
HLD	63	0	5	192
HLD	63	192	4	192
STR	64	0	2
SI_	64	0	2	96	48	6
STR	64	192	3
SI_	64	192	3	96	48	5
STR	65	0	1
SCL	65	0	1	96	192	3
TAP	66	0	0
TAP	66	0	5
TAP	66	48	1
TAP	66	96	2
TAP	66	96	7
TAP	66	144	6
TAP	66	192	0
TAP	66	192	7
BRK	66	288	1
BRK	66	288	6
TAP	67	0	7
TAP	67	48	6
TAP	67	96	5
STR	67	144	4
SUR	67	144	4	96	96	2
TAP	68	0	0
TAP	68	48	1
TAP	68	96	2
STR	68	144	3
SUL	68	144	3	96	96	5
HLD	69	0	7	72
HLD	69	72	5	72
TAP	69	144	4
HLD	69	192	0	72
HLD	69	264	2	72
TAP	69	336	3
HLD	70	0	4	72
HLD	70	72	6	72
STR	70	144	7
SCR	70	144	7	96	96	2
STR	71	0	0
SI_	71	0	0	96	48	5
STR	71	96	7
SI_	71	96	7	96	48	2
STR	71	192	1
SUR	71	192	1	96	96	4
STR	72	0	7
SI_	72	0	7	96	48	2
STR	72	96	0
SI_	72	96	0	96	48	5
STR	72	192	6
SUL	72	192	6	96	96	3
HLD	73	0	0	72
HLD	73	72	6	72
TAP	73	144	5
HLD	73	192	4	72
HLD	73	264	2	72
TAP	73	336	0
TAP	74	0	0
TAP	74	0	1
TAP	74	72	2
TAP	74	72	7
TAP	74	144	2
TAP	74	144	3
TAP	74	192	6
TAP	74	192	7
TAP	74	264	0
TAP	74	264	5
BRK	74	336	4
BRK	74	336	5

T_REC_TAP	268
T_REC_BRK	6
T_REC_XTP	0
T_REC_HLD	22
T_REC_XHO	0
T_REC_STR	62
T_REC_BST	0
T_REC_XST	0
T_REC_TTP	0
T_REC_THO	0
T_REC_SLD	62
T_REC_ALL	420
T_NUM_TAP	330
T_NUM_BRK	6
T_NUM_HLD	22
T_NUM_SLD	62
T_NUM_ALL	420
T_JUDGE_TAP	336
T_JUDGE_HLD	51
T_JUDGE_SLD	62
T_JUDGE_ALL	449
TTM_EACHPAIRS	77
TTM_SCR_TAP	165000
TTM_SCR_BRK	15600
TTM_SCR_HLD	22000
TTM_SCR_SLD	93000
TTM_SCR_ALL	295600
TTM_SCR_S	286150
TTM_SCR_SS	295000
TTM_RAT_ACV	10020

