VERSION	0.00.00	1.03.00
FES_MODE	0
BPM_DEF	170.000	170.000	170.000	170.000
MET_DEF	4	4
RESOLUTION	384
CLK_DEF	384
COMPATIBLE_CODE	MA2

BPM	0	0	170.000
MET	0	0	4	4

STR	2	0	1
SCR	2	0	1	96	240	4
STR	3	0	6
SCL	3	0	6	96	240	3
STR	4	0	2
SCL	4	0	2	96	240	7
STR	5	0	5
SCR	5	0	5	96	240	0
STR	6	0	2
SUL	6	0	2	96	240	5
STR	7	0	6
SUL	7	0	6	96	240	1
STR	8	0	0
SSL	8	0	0	96	240	4
BRK	9	0	5
TAP	10	0	0
TAP	10	96	1
TAP	10	192	2
TAP	10	288	2
TAP	10	288	3
TAP	11	0	7
TAP	11	96	6
TAP	11	192	5
TAP	11	288	4
TAP	11	288	5
TAP	12	0	3
TAP	12	96	2
TAP	12	192	1
TAP	12	288	0
TAP	12	288	1
TAP	13	0	4
TAP	13	96	5
TAP	13	192	6
TAP	13	288	6
TAP	13	288	7
HLD	14	0	0	144
HLD	14	144	7	144
TAP	14	288	0
HLD	15	0	3	144
HLD	15	144	4	144
STR	15	288	1
SUL	15	288	1	96	288	3
BRK	17	0	7
TAP	18	0	0
TAP	18	96	0
TAP	18	192	6
TAP	18	288	6
TAP	19	0	2
TAP	19	96	2
TAP	19	192	4
TAP	19	288	4
TAP	20	0	1
TAP	20	96	0
TAP	20	192	7
TAP	20	288	6
TAP	21	0	5
TAP	21	96	4
TAP	21	192	3
TAP	21	288	2
TAP	22	0	7
TAP	22	96	7
TAP	22	192	1
TAP	22	288	1
TAP	23	0	5
TAP	23	96	5
TAP	23	192	3
TAP	23	288	3
TAP	24	0	6
TAP	24	96	7
TAP	24	192	0
TAP	24	288	1
TAP	25	0	2
TAP	25	96	3
STR	25	192	4
SI_	25	192	4	96	96	7
TAP	26	0	1
TAP	26	96	1
TAP	26	192	1
TAP	26	288	0
TAP	26	288	1
TAP	27	0	6
TAP	27	96	6
TAP	27	192	6
TAP	27	288	6
TAP	27	288	7
TAP	28	0	2
TAP	28	96	2
TAP	28	192	2
TAP	28	288	2
TAP	28	288	3
TAP	29	0	5
TAP	29	96	5
TAP	29	192	5
TAP	29	288	4
TAP	29	288	5
HLD	30	0	7	192
TAP	30	288	0
TAP	30	288	1
TAP	31	0	0
TAP	31	0	1
TAP	31	96	2
TAP	31	96	3
TAP	31	192	4
TAP	31	192	5
TAP	31	288	6
TAP	31	288	7
TAP	32	0	1
TAP	32	0	6
HLD	32	144	0	144
HLD	32	144	7	144
STR	33	0	0
SI_	33	0	0	96	96	3
STR	33	0	7
SI_	33	0	7	96	96	4
STR	34	0	0
SCR	34	0	0	96	48	2
STR	34	192	7
SCL	34	192	7	96	48	5
STR	35	0	1
SCR	35	0	1	96	48	3
STR	35	192	6
SCL	35	192	6	96	48	4
STR	36	0	0
SI_	36	0	0	96	48	2
STR	36	192	7
SI_	36	192	7	96	48	5
STR	37	0	1
SI_	37	0	1	96	48	3
STR	37	192	6
SI_	37	192	6	96	48	4
HLD	38	0	0	384
HLD	39	0	7	192
HLD	39	192	3	192
HLD	40	0	4	288
BRK	41	0	3
TAP	41	192	0
TAP	41	192	7
TAP	41	288	1
TAP	41	288	6
TAP	42	0	3
TAP	42	0	4
TAP	42	96	3
TAP	42	96	4
TAP	42	192	3
TAP	42	192	4
TAP	42	288	3
TAP	42	288	4
TAP	43	0	3
TAP	43	0	4
TAP	43	96	2
TAP	43	192	3
TAP	43	192	4
TAP	43	288	5
TAP	44	0	3
TAP	44	0	4
TAP	44	96	3
TAP	44	96	4
TAP	44	192	3
TAP	44	192	4
TAP	44	288	3
TAP	44	288	4
TAP	45	0	3
TAP	45	0	4
TAP	45	96	2
TAP	45	96	3
TAP	45	192	3
TAP	45	192	4
TAP	45	288	4
TAP	45	288	5
TAP	46	0	3
TAP	46	96	2
TAP	46	192	1
TAP	46	288	0
TAP	47	0	7
TAP	47	96	6
TAP	47	192	5
TAP	47	288	4
TAP	48	0	0
TAP	48	0	7
TAP	48	96	0
TAP	48	96	7
TAP	48	192	1
TAP	48	192	6
TAP	48	288	2
TAP	48	288	5
TAP	49	0	3
TAP	49	0	4
STR	49	96	3
SI_	49	96	3	96	96	0
STR	49	96	4
SI_	49	96	4	96	96	7
BRK	50	0	0
BRK	50	0	7
BRK	50	96	1
BRK	50	96	6
BRK	50	192	2
BRK	50	192	5
BRK	50	288	3
BRK	50	288	4
STR	51	0	0
SI_	51	0	0	96	96	4
TAP	51	192	7
TAP	51	288	7
STR	52	0	7
SI_	52	0	7	96	96	3
TAP	52	192	0
TAP	52	288	0
STR	53	0	1
SI_	53	0	1	96	96	4
TAP	53	192	7
TAP	53	288	7
STR	54	0	6
SI_	54	0	6	96	96	3
TAP	54	192	0
TAP	54	288	0
STR	55	0	0
SUR	55	0	0	96	144	5
STR	56	0	7
SUL	56	0	7	96	144	2
STR	57	0	3
SI_	57	0	3	96	96	0
STR	57	0	4
SI_	57	0	4	96	96	7
BRK	58	0	0
BRK	58	0	7
TAP	58	192	0
TAP	58	192	7
TAP	58	288	1
TAP	58	288	6
TAP	59	0	0
TAP	59	96	4
TAP	59	192	2
TAP	59	288	6
TAP	60	0	1
TAP	60	96	5
TAP	60	192	3
TAP	60	288	7
TAP	61	0	0
TAP	61	0	4
TAP	61	96	1
TAP	61	96	5
TAP	61	192	2
TAP	61	192	6
TAP	61	288	3
TAP	61	288	7
TAP	62	0	0
TAP	62	0	4
TAP	62	96	2
TAP	62	96	6
TAP	62	192	1
TAP	62	192	5
TAP	62	288	3
TAP	62	288	7
HLD	63	0	0	192
HLD	63	192	7	192
TAP	64	0	1
TAP	64	96	0
TAP	64	192	7
TAP	64	288	6
STR	65	0	5
SCR	65	0	5	96	288	2
TAP	67	0	0
TAP	67	96	1
TAP	67	192	2
TAP	67	288	2
TAP	67	288	3
TAP	68	0	7
TAP	68	96	6
TAP	68	192	5
TAP	68	288	4
TAP	68	288	5
TAP	69	0	3
TAP	69	96	2
TAP	69	192	1
TAP	69	288	0
TAP	69	288	1
TAP	70	0	4
TAP	70	96	5
TAP	70	192	6
TAP	70	288	6
TAP	70	288	7
TAP	71	0	0
TAP	71	0	4
TAP	71	96	1
TAP	71	96	5
TAP	71	192	2
TAP	71	192	6
TAP	71	288	3
TAP	71	288	7
TAP	72	0	2
TAP	72	0	6
TAP	72	96	0
TAP	72	96	4
TAP	72	192	1
TAP	72	192	5
TAP	72	288	3
TAP	72	288	7
HLD	73	0	0	192
HLD	73	0	7	192
TAP	74	0	1
TAP	74	0	6
TAP	74	72	1
TAP	74	72	6
TAP	74	144	1
TAP	74	144	6
TAP	74	192	0
TAP	74	192	7
TAP	74	264	0
TAP	74	264	7
TAP	74	336	0
TAP	74	336	7

T_REC_TAP	223
T_REC_BRK	13
T_REC_XTP	0
T_REC_HLD	15
T_REC_XHO	0
T_REC_STR	30
T_REC_BST	0
T_REC_XST	0
T_REC_TTP	0
T_REC_THO	0
T_REC_SLD	30
T_REC_ALL	311
T_NUM_TAP	253
T_NUM_BRK	13
T_NUM_HLD	15
T_NUM_SLD	30
T_NUM_ALL	311
T_JUDGE_TAP	266
T_JUDGE_HLD	60
T_JUDGE_SLD	30
T_JUDGE_ALL	356
TTM_EACHPAIRS	73
TTM_SCR_TAP	126500
TTM_SCR_BRK	33800
TTM_SCR_HLD	15000
TTM_SCR_SLD	45000
TTM_SCR_ALL	220300
TTM_SCR_S	212450
TTM_SCR_SS	219000
TTM_RAT_ACV	10059

