VERSION	0.00.00	1.03.00
FES_MODE	0
BPM_DEF	170.000	170.000	170.000	170.000
MET_DEF	4	4
RESOLUTION	384
CLK_DEF	384
COMPATIBLE_CODE	MA2

BPM	0	0	170.000
MET	0	0	4	4

HLD	2	0	7	1344
HLD	6	0	0	960
TAP	9	0	7
TAP	9	96	0
TAP	9	192	0
TAP	9	192	7
TAP	10	96	0
TAP	10	288	1
TAP	11	96	2
TAP	11	288	3
TAP	12	96	4
TAP	12	288	5
TAP	13	96	6
TAP	13	288	7
HLD	14	0	7	192
HLD	15	0	0	192
HLD	16	0	0	192
HLD	16	0	7	192
TAP	17	0	1
TAP	17	0	6
TAP	18	0	0
TAP	18	96	0
TAP	18	192	0
TAP	19	0	1
TAP	19	96	1
TAP	19	192	1
HLD	20	0	2	192
HLD	21	0	3	192
TAP	22	0	4
TAP	22	96	4
TAP	22	192	4
TAP	23	0	5
TAP	23	96	5
TAP	23	192	5
HLD	24	0	6	192
HLD	25	0	7	192
TAP	26	0	0
TAP	26	96	1
TAP	26	192	0
TAP	27	0	0
TAP	27	0	1
TAP	27	192	0
TAP	27	192	1
TAP	28	0	7
TAP	28	96	6
TAP	28	192	7
TAP	29	0	6
TAP	29	0	7
TAP	29	192	6
TAP	29	192	7
HLD	30	0	7	192
HLD	31	0	0	192
TAP	32	0	0
TAP	32	0	7
BRK	33	0	0
STR	34	0	1
SI_	34	0	1	96	192	6
STR	36	0	7
SI_	36	0	7	96	192	4
STR	38	0	5
SI_	38	0	5	96	192	2
STR	40	0	3
SI_	40	0	3	96	192	0
TAP	42	0	0
TAP	42	96	1
TAP	42	192	0
HLD	43	0	0	192
HLD	43	0	1	192
TAP	44	0	7
TAP	44	96	6
TAP	44	192	7
HLD	45	0	6	192
HLD	45	0	7	192
TAP	46	0	3
TAP	46	96	4
TAP	46	192	3
HLD	47	0	3	192
HLD	47	0	4	192
TAP	48	0	0
TAP	48	96	7
TAP	48	192	0
HLD	49	0	0	192
HLD	49	0	7	192
STR	50	0	7
SI_	50	0	7	96	192	4
TAP	51	96	3
TAP	51	288	4
TAP	52	96	3
TAP	52	96	4
TAP	52	288	3
TAP	52	288	4
TAP	53	96	2
TAP	53	288	5
TAP	54	96	2
TAP	54	96	5
TAP	54	288	2
TAP	54	288	5
TAP	55	96	1
TAP	55	288	6
TAP	56	96	1
TAP	56	96	6
TAP	56	288	1
TAP	56	288	6
HLD	57	0	1	384
HLD	57	0	6	384
TAP	59	96	0
TAP	59	96	7
TAP	59	288	0
TAP	59	288	7
TAP	60	96	1
TAP	60	96	6
TAP	60	288	1
TAP	60	288	6
TAP	61	96	2
TAP	61	96	5
TAP	61	288	2
TAP	61	288	5
TAP	62	96	3
TAP	62	96	4
TAP	62	288	3
TAP	62	288	4
TAP	63	0	3
TAP	63	192	2
TAP	64	0	1
TAP	64	96	1
TAP	64	192	0
TAP	64	288	0
HLD	65	0	0	384
HLD	65	0	7	384
BRK	66	192	0
TAP	67	0	0
TAP	67	96	0
TAP	67	192	1
TAP	67	288	1
TAP	68	0	2
TAP	68	96	2
TAP	68	192	2
TAP	69	0	7
TAP	69	96	7
TAP	69	192	6
TAP	69	288	6
TAP	70	0	5
TAP	70	96	5
TAP	70	192	5
TAP	71	0	2
TAP	71	96	1
TAP	71	192	0
TAP	72	0	5
TAP	72	96	6
TAP	72	192	7
TAP	73	0	0
TAP	73	0	1
TAP	73	192	6
TAP	73	192	7
TAP	74	0	0
TAP	74	0	7
BRK	74	192	0
BRK	74	192	7

T_REC_TAP	120
T_REC_BRK	4
T_REC_XTP	0
T_REC_HLD	24
T_REC_XHO	0
T_REC_STR	5
T_REC_BST	0
T_REC_XST	0
T_REC_TTP	0
T_REC_THO	0
T_REC_SLD	5
T_REC_ALL	158
T_NUM_TAP	125
T_NUM_BRK	4
T_NUM_HLD	24
T_NUM_SLD	5
T_NUM_ALL	158
T_JUDGE_TAP	129
T_JUDGE_HLD	152
T_JUDGE_SLD	5
T_JUDGE_ALL	286
TTM_EACHPAIRS	32
TTM_SCR_TAP	62500
TTM_SCR_BRK	10400
TTM_SCR_HLD	24000
TTM_SCR_SLD	7500
TTM_SCR_ALL	104400
TTM_SCR_S	100900
TTM_SCR_SS	104000
TTM_RAT_ACV	10038

