VERSION	0.00.00	1.03.00
FES_MODE	0
BPM_DEF	135.000	135.000	135.000	135.000
MET_DEF	4	4
RESOLUTION	384
CLK_DEF	384
COMPATIBLE_CODE	MA2

BPM	0	0	135.000
MET	0	0	4	4

STR	1	0	1
SCR	1	0	1	96	48	4
TAP	1	96	0
STR	1	192	7
SCR	1	192	7	96	48	2
TAP	1	288	6
STR	2	0	5
SCR	2	0	5	96	48	0
TAP	2	96	4
STR	2	192	3
SCR	2	192	3	96	48	6
TAP	2	288	2
STR	3	0	1
SCL	3	0	1	96	48	6
TAP	3	96	2
STR	3	192	3
SCL	3	192	3	96	48	0
TAP	3	288	4
STR	4	0	5
SCL	4	0	5	96	48	2
TAP	4	96	6
STR	4	192	7
SCL	4	192	7	96	48	4
TAP	4	288	0
STR	5	0	1
SUL	5	0	1	96	48	4
TAP	5	96	0
STR	5	192	7
SUL	5	192	7	96	48	2
TAP	5	288	6
STR	6	0	5
SUL	6	0	5	96	48	0
TAP	6	96	4
STR	6	192	3
SUL	6	192	3	96	48	6
TAP	6	288	2
STR	7	0	1
SUR	7	0	1	96	48	6
TAP	7	96	3
STR	7	192	3
SUR	7	192	3	96	48	0
TAP	7	288	4
STR	8	0	5
SUR	8	0	5	96	48	2
TAP	8	96	6
STR	8	192	7
SUR	8	192	7	96	48	4
BRK	8	288	1
STR	9	0	7
SCR	9	0	7	96	96	3
STR	9	96	3
SUR	9	96	3	96	144	4
TAP	9	192	1
TAP	9	288	0
STR	10	0	0
SCL	10	0	0	96	96	4
STR	10	96	4
SUL	10	96	4	96	144	3
TAP	10	192	6
TAP	10	288	7
STR	11	0	0
SCR	11	0	0	96	48	2
STR	11	96	6
SCL	11	96	6	96	48	4
STR	11	192	1
SCR	11	192	1	96	48	3
STR	11	288	0
SCL	11	288	0	96	48	6
STR	12	0	4
SCL	12	0	4	96	48	2
STR	12	96	0
SSL	12	96	0	96	96	4
STR	13	0	6
SCL	13	0	6	96	96	3
STR	13	96	3
SUL	13	96	3	96	96	1
STR	13	192	1
SCL	13	192	1	96	96	6
STR	14	0	1
SCR	14	0	1	96	96	4
STR	14	96	4
SUR	14	96	4	96	96	6
STR	14	192	6
SCR	14	192	6	96	96	1
STR	15	0	7
SCL	15	0	7	96	48	5
STR	15	96	1
SCR	15	96	1	96	48	3
STR	15	192	6
SCL	15	192	6	96	48	4
STR	15	288	7
SCR	15	288	7	96	48	1
STR	16	0	3
SCR	16	0	3	96	48	5
STR	16	96	7
SSR	16	96	7	96	96	3
STR	16	336	0
SUL	16	336	0	96	96	3
HLD	17	0	0	96
STR	17	144	7
SUR	17	144	7	96	96	4
HLD	17	192	7	96
TAP	17	336	0
STR	18	0	0
SCR	18	0	0	96	96	4
STR	18	96	4
SUR	18	96	4	96	96	6
TAP	18	192	7
TAP	18	288	0
STR	18	336	0
SSL	18	336	0	96	96	4
HLD	19	0	0	96
STR	19	144	7
SSR	19	144	7	96	96	3
HLD	19	192	7	96
TAP	19	336	7
STR	20	0	7
SCL	20	0	7	96	96	3
STR	20	96	3
SUL	20	96	3	96	96	1
TAP	20	192	0
TAP	20	288	0
STR	20	336	0
SUR	20	336	0	96	48	5
HLD	21	0	0	96
STR	21	144	7
SUL	21	144	7	96	48	2
HLD	21	192	7	96
TAP	21	336	0
STR	22	0	0
SCR	22	0	0	96	48	3
STR	22	96	0
SUR	22	96	0	96	48	4
TAP	22	288	6
STR	22	336	6
SUR	22	336	6	96	48	5
HLD	23	0	6	96
STR	23	144	1
SUL	23	144	1	96	48	2
HLD	23	192	1	96
TAP	23	336	6
STR	24	0	6
SCL	24	0	6	96	96	3
STR	24	96	3
SCL	24	96	3	96	96	0
STR	24	192	0
SSL	24	192	0	96	288	4
STR	25	288	0
SCR	25	288	0	96	96	3
STR	26	0	3
SUR	26	0	3	96	96	0
STR	26	96	0
SCR	26	96	0	96	96	3
STR	26	192	3
SUR	26	192	3	96	96	0
STR	26	288	0
SCR	26	288	0	96	96	3
STR	27	0	3
SUR	27	0	3	96	96	0
STR	27	96	0
SCR	27	96	0	96	96	3
BRK	27	192	3
STR	27	288	7
SCL	27	288	7	96	96	4
STR	28	0	4
SUL	28	0	4	96	96	7
STR	28	96	7
SCL	28	96	7	96	96	4
STR	28	192	4
SUL	28	192	4	96	96	7
STR	28	288	7
SCL	28	288	7	96	96	4
STR	29	0	4
SUL	29	0	4	96	96	7
STR	29	96	7
SCL	29	96	7	96	96	4
BRK	29	192	4
STR	29	288	7
SCR	29	288	7	96	96	2
STR	30	0	2
SUR	30	0	2	96	96	7
STR	30	96	7
SCR	30	96	7	96	96	2
STR	30	192	2
SUR	30	192	2	96	96	7
STR	30	288	7
SCR	30	288	7	96	96	2
STR	31	0	2
SUR	31	0	2	96	96	7
STR	31	96	7
SCR	31	96	7	96	96	2
STR	31	192	2
SCR	31	192	2	96	96	5
STR	31	288	5
SCR	31	288	5	96	96	0
STR	32	0	0
SUR	32	0	0	96	96	5
STR	32	96	5
SCR	32	96	5	96	96	0
STR	32	192	0
SUR	32	192	0	96	96	5
STR	32	288	5
SCR	32	288	5	96	96	0
STR	33	0	0
SUR	33	0	0	96	96	5
TAP	33	96	5
BRK	33	192	7
STR	33	288	0
SCR	33	288	0	96	96	5
STR	34	0	5
SUR	34	0	5	96	96	2
STR	34	96	2
SCR	34	96	2	96	96	7
STR	34	192	7
SUR	34	192	7	96	96	4
STR	34	288	4
SCR	34	288	4	96	96	1
STR	35	0	1
SUR	35	0	1	96	96	6
STR	35	96	6
SCR	35	96	6	96	96	1
BRK	35	192	1
STR	35	288	7
SCL	35	288	7	96	96	2
STR	36	0	2
SUL	36	0	2	96	96	5
STR	36	96	5
SCL	36	96	5	96	96	0
STR	36	192	0
SUL	36	192	0	96	96	3
STR	36	288	3
SCL	36	288	3	96	96	6
STR	37	0	6
SUL	37	0	6	96	96	1
STR	37	96	1
SCL	37	96	1	96	96	6
BRK	37	192	6
STR	37	288	0
SCR	37	288	0	96	48	3
STR	37	336	3
SUR	37	336	3	96	48	0
STR	38	96	7
SCL	38	96	7	96	48	4
STR	38	144	4
SUL	38	144	4	96	48	7
STR	38	288	0
SCL	38	288	0	96	48	5
STR	38	336	5
SUL	38	336	5	96	48	0
STR	39	96	7
SCR	39	96	7	96	48	2
STR	39	144	2
SUR	39	144	2	96	48	7
STR	39	288	2
SCR	39	288	2	96	48	5
STR	39	336	5
SUR	39	336	5	96	48	2
STR	40	96	6
SCR	40	96	6	96	48	1
STR	40	144	1
SUR	40	144	1	96	48	6
STR	40	288	1
SCR	40	288	1	96	48	4
STR	40	336	4
SUR	40	336	4	96	48	1
STR	41	96	6
SCL	41	96	6	96	48	3
STR	41	144	3
SUL	41	144	3	96	48	6
BRK	41	288	1
STR	42	0	0
SCL	42	0	0	96	192	2
STR	42	0	2
SUR	42	0	2	96	192	0
STR	43	0	5
SUL	43	0	5	96	192	7
STR	43	0	7
SCR	43	0	7	96	192	5
STR	44	0	0
SUR	44	0	0	96	192	1
STR	44	0	1
SCR	44	0	1	96	192	5
STR	45	0	6
SCL	45	0	6	96	192	2
STR	45	0	7
SUL	45	0	7	96	192	6
STR	46	0	1
SUR	46	0	1	96	192	4
STR	46	0	4
SCR	46	0	4	96	192	2
STR	47	0	3
SCL	47	0	3	96	192	5
STR	47	0	6
SUL	47	0	6	96	192	3
STR	48	0	3
SUL	48	0	3	96	192	0
STR	48	0	7
SCL	48	0	7	96	192	2
STR	49	0	3
SCL	49	0	3	96	48	1
STR	49	0	4
SCR	49	0	4	96	48	6
STR	49	96	3
SI_	49	96	3	96	48	0
STR	49	96	4
SI_	49	96	4	96	48	7
STR	49	288	0
SCR	49	288	0	96	48	3
STR	49	288	4
SCR	49	288	4	96	48	7
STR	50	0	0
SUL	50	0	0	96	48	4
STR	50	0	4
SUL	50	0	4	96	48	0
STR	50	96	0
SCR	50	96	0	96	48	3
STR	50	96	4
SCR	50	96	4	96	48	7
STR	50	192	0
SUL	50	192	0	96	48	4
STR	50	192	4
SUL	50	192	4	96	48	0
STR	50	288	0
SCR	50	288	0	96	48	3
STR	50	288	4
SCR	50	288	4	96	48	7
STR	51	0	0
SUL	51	0	0	96	48	4
STR	51	0	4
SUL	51	0	4	96	48	0
STR	51	96	0
SCR	51	96	0	96	48	3
STR	51	96	4
SCR	51	96	4	96	48	7
BRK	51	192	0
BRK	51	192	4
STR	51	288	4
SI_	51	288	4	96	48	0
STR	51	288	6
SV_	51	288	6	96	48	0
STR	52	96	1
SV_	52	96	1	96	48	7
STR	52	96	3
SI_	52	96	3	96	48	7
TAP	52	288	3
TAP	52	288	7
STR	53	0	1
SV_	53	0	1	96	96	3
STR	53	0	5
SV_	53	0	5	96	96	7
STR	53	288	3
SCL	53	288	3	96	48	0
STR	53	288	7
SCL	53	288	7	96	48	4
STR	54	0	3
SUR	54	0	3	96	48	7
STR	54	0	7
SUR	54	0	7	96	48	3
STR	54	96	3
SCL	54	96	3	96	48	0
STR	54	96	7
SCL	54	96	7	96	48	4
STR	54	192	3
SUR	54	192	3	96	48	7
STR	54	192	7
SUR	54	192	7	96	48	3
STR	54	288	3
SCL	54	288	3	96	48	0
STR	54	288	7
SCL	54	288	7	96	48	4
STR	55	0	3
SUR	55	0	3	96	48	7
STR	55	0	7
SUR	55	0	7	96	48	3
STR	55	96	3
SCL	55	96	3	96	48	0
STR	55	96	7
SCL	55	96	7	96	48	4
BRK	55	192	3
BRK	55	192	7
STR	55	288	2
SV_	55	288	2	96	48	4
STR	55	288	3
SI_	55	288	3	96	48	7
STR	56	96	4
SI_	56	96	4	96	48	0
STR	56	96	5
SV_	56	96	5	96	48	3
TAP	56	288	0
TAP	56	288	7
STR	57	0	2
SUR	57	0	2	96	96	7
STR	57	0	5
SUL	57	0	5	96	96	0
STR	57	288	2
SCL	57	288	2	96	48	7
STR	57	288	6
SCL	57	288	6	96	48	3
STR	58	0	2
SUR	58	0	2	96	48	6
STR	58	0	6
SUR	58	0	6	96	48	2
STR	58	96	2
SCL	58	96	2	96	48	7
STR	58	96	6
SCL	58	96	6	96	48	3
STR	58	192	2
SUR	58	192	2	96	48	6
STR	58	192	6
SUR	58	192	6	96	48	2
STR	58	288	6
SCL	58	288	6	96	48	3
STR	59	0	7
SCR	59	0	7	96	48	2
STR	59	96	6
SCL	59	96	6	96	48	3
STR	59	288	1
SCR	59	288	1	96	48	4
STR	59	288	5
SCR	59	288	5	96	48	0
STR	60	0	1
SUL	60	0	1	96	48	5
STR	60	0	5
SUL	60	0	5	96	48	1
STR	60	96	1
SCR	60	96	1	96	48	4
STR	60	96	5
SCR	60	96	5	96	48	0
STR	60	192	1
SUL	60	192	1	96	48	5
STR	60	192	5
SUL	60	192	5	96	48	1
STR	60	288	1
SCR	60	288	1	96	48	4
STR	61	0	0
SCL	61	0	0	96	48	5
STR	61	96	1
SCR	61	96	1	96	48	4
STR	61	288	1
SCR	61	288	1	96	48	4
STR	61	288	5
SCR	61	288	5	96	48	0
BRK	62	0	1
BRK	62	0	5
STR	62	96	0
SCL	62	96	0	96	48	5
STR	62	96	4
SCL	62	96	4	96	48	1
BRK	62	192	0
BRK	62	192	4
STR	62	288	2
SCL	62	288	2	96	48	7
STR	62	288	6
SCL	62	288	6	96	48	3
BRK	63	0	2
BRK	63	0	6
STR	63	96	3
SCR	63	96	3	96	48	6
STR	63	96	7
SCR	63	96	7	96	48	2
BRK	63	192	3
BRK	63	192	7
STR	63	288	0
SCR	63	288	0	96	48	3
STR	63	288	4
SCR	63	288	4	96	48	7
STR	64	0	0
SUL	64	0	0	96	48	4
STR	64	0	4
SUL	64	0	4	96	48	0
STR	64	96	0
SCR	64	96	0	96	48	3
STR	64	96	4
SCR	64	96	4	96	48	7
TAP	64	192	0
TAP	64	192	4
STR	64	288	3
SCL	64	288	3	96	48	0
STR	64	288	7
SCL	64	288	7	96	48	4
STR	65	0	3
SUR	65	0	3	96	48	7
STR	65	0	7
SUR	65	0	7	96	48	3
STR	65	96	3
SCL	65	96	3	96	48	0
STR	65	96	7
SCL	65	96	7	96	48	4
STR	65	192	3
SUR	65	192	3	96	48	7
STR	65	192	7
SUR	65	192	7	96	48	3
STR	65	288	3
SCL	65	288	3	96	384	7
STR	65	288	7
SCL	65	288	7	96	384	3

T_REC_TAP	35
T_REC_BRK	19
T_REC_XTP	0
T_REC_HLD	8
T_REC_XHO	0
T_REC_STR	217
T_REC_BST	0
T_REC_XST	0
T_REC_TTP	0
T_REC_THO	0
T_REC_SLD	217
T_REC_ALL	496
T_NUM_TAP	252
T_NUM_BRK	19
T_NUM_HLD	8
T_NUM_SLD	217
T_NUM_ALL	496
T_JUDGE_TAP	271
T_JUDGE_HLD	16
T_JUDGE_SLD	217
T_JUDGE_ALL	504
TTM_EACHPAIRS	58
TTM_SCR_TAP	126000
TTM_SCR_BRK	49400
TTM_SCR_HLD	8000
TTM_SCR_SLD	325500
TTM_SCR_ALL	508900
TTM_SCR_S	491800
TTM_SCR_SS	507000
TTM_RAT_ACV	10037

