VERSION	0.00.00	1.03.00
FES_MODE	0
BPM_DEF	135.000	135.000	135.000	135.000
MET_DEF	4	4
RESOLUTION	384
CLK_DEF	384
COMPATIBLE_CODE	MA2

BPM	0	0	135.000
MET	0	0	4	4

STR	1	0	0
SI_	1	0	0	96	48	4
STR	1	192	7
SI_	1	192	7	96	48	3
STR	2	0	1
SI_	2	0	1	96	48	4
STR	2	192	6
SI_	2	192	6	96	48	3
STR	3	0	0
SI_	3	0	0	96	48	2
STR	3	192	4
SI_	3	192	4	96	48	6
STR	4	0	2
SI_	4	0	2	96	48	4
STR	4	192	6
SI_	4	192	6	96	48	0
STR	5	0	0
SI_	5	0	0	96	48	5
STR	5	0	1
SI_	5	0	1	96	48	4
STR	5	192	6
SI_	5	192	6	96	48	3
STR	5	192	7
SI_	5	192	7	96	48	2
STR	6	0	0
SUR	6	0	0	96	48	5
STR	6	0	1
SCR	6	0	1	96	48	4
STR	6	192	6
SCL	6	192	6	96	48	3
STR	6	192	7
SUL	6	192	7	96	48	2
STR	7	0	3
SI_	7	0	3	96	48	7
STR	7	192	1
SI_	7	192	1	96	48	5
TAP	8	0	0
TAP	8	0	4
TAP	8	48	3
TAP	8	48	7
TAP	8	96	2
TAP	8	96	6
TAP	8	144	1
TAP	8	144	5
TAP	8	192	0
TAP	8	192	4
BRK	8	288	0
BRK	8	288	7
TAP	9	0	2
TAP	9	48	3
TAP	9	96	2
TAP	9	144	4
TAP	9	192	2
TAP	9	240	5
TAP	9	336	5
TAP	10	0	4
TAP	10	48	5
TAP	10	96	3
TAP	10	144	5
TAP	10	192	2
TAP	10	240	5
TAP	10	336	2
TAP	11	0	1
TAP	11	48	0
TAP	11	96	7
TAP	11	144	6
TAP	11	192	5
TAP	11	240	4
TAP	11	288	3
TAP	11	336	4
TAP	12	0	2
TAP	12	48	5
TAP	12	96	1
TAP	12	144	6
TAP	12	192	0
TAP	12	240	7
TAP	12	336	0
TAP	13	0	0
TAP	13	48	2
TAP	13	96	4
TAP	13	144	6
TAP	13	192	0
TAP	13	240	5
TAP	13	336	4
TAP	14	0	7
TAP	14	48	5
TAP	14	96	3
TAP	14	144	1
TAP	14	192	7
TAP	14	240	2
TAP	14	336	3
TAP	15	0	1
TAP	15	48	0
TAP	15	96	7
TAP	15	144	6
TAP	15	192	5
TAP	15	240	2
TAP	15	288	3
TAP	15	336	4
TAP	16	0	0
TAP	16	0	7
TAP	16	48	0
TAP	16	48	7
TAP	16	96	0
TAP	16	96	1
TAP	16	144	6
TAP	16	144	7
TAP	16	192	0
TAP	16	192	1
TAP	16	336	2
HLD	17	0	2	144
TAP	17	144	4
HLD	17	192	4	144
TAP	17	336	6
HLD	18	0	6	96
HLD	18	96	7	96
HLD	18	192	0	96
BRK	18	288	1
HLD	19	0	1	144
TAP	19	144	7
HLD	19	192	7	144
TAP	19	336	5
HLD	20	0	5	96
HLD	20	96	4	96
HLD	20	192	3	96
TAP	20	288	2
STR	21	0	1
SI_	21	0	1	96	48	5
STR	21	192	7
SI_	21	192	7	96	48	3
STR	22	0	6
SCR	22	0	6	96	48	1
STR	22	192	2
SCR	22	192	2	96	48	5
STR	23	0	1
SUL	23	0	1	96	72	2
STR	23	192	6
SUR	23	192	6	96	72	5
TAP	24	0	3
STR	24	96	3
SI_	24	96	3	96	48	0
STR	24	96	4
SI_	24	96	4	96	48	7
BRK	25	0	1
BRK	25	0	6
STR	26	0	3
SCL	26	0	3	96	72	0
STR	26	0	4
SUL	26	0	4	96	72	7
STR	26	192	0
SUL	26	192	0	96	72	3
STR	26	192	7
SCL	26	192	7	96	72	4
STR	27	0	3
SCL	27	0	3	96	72	0
STR	27	0	4
SUL	27	0	4	96	72	7
STR	27	192	0
SUL	27	192	0	96	72	3
STR	27	192	7
SCL	27	192	7	96	72	4
HLD	28	0	0	96
TAP	28	96	2
HLD	28	192	7	96
TAP	28	288	5
HLD	29	0	1	192
BRK	29	96	3
HLD	29	192	5	96
BRK	29	288	7
STR	30	0	7
SCR	30	0	7	96	192	3
TAP	30	96	6
TAP	30	192	5
TAP	30	288	4
STR	31	0	0
SCL	31	0	0	96	192	4
TAP	31	96	1
TAP	31	192	2
TAP	31	288	3
TAP	32	0	0
STR	32	0	7
SCL	32	0	7	96	96	4
STR	32	192	3
SCL	32	192	3	96	96	0
TAP	32	192	4
HLD	33	0	7	288
BRK	33	96	5
BRK	33	192	3
BRK	33	288	1
STR	34	0	0
SUL	34	0	0	96	72	3
STR	34	0	7
SCL	34	0	7	96	72	4
STR	34	192	3
SCL	34	192	3	96	72	0
STR	34	192	4
SUL	34	192	4	96	72	7
STR	35	0	0
SUL	35	0	0	96	72	3
STR	35	0	7
SCL	35	0	7	96	72	4
STR	35	192	3
SCL	35	192	3	96	72	0
STR	35	192	4
SUL	35	192	4	96	72	7
TAP	36	0	1
TAP	36	48	2
TAP	36	96	3
TAP	36	144	4
TAP	36	192	5
TAP	36	240	6
TAP	36	288	7
TAP	36	336	0
TAP	37	0	7
STR	37	96	0
SCR	37	96	0	96	48	3
STR	37	96	7
SCL	37	96	7	96	48	4
STR	38	0	0
SV_	38	0	0	96	96	2
STR	38	192	1
SV_	38	192	1	96	96	3
STR	39	0	2
SV_	39	0	2	96	96	4
STR	39	192	3
SV_	39	192	3	96	96	5
STR	40	0	4
SI_	40	0	4	96	48	2
STR	40	192	5
SI_	40	192	5	96	48	1
STR	41	0	6
SI_	41	0	6	96	48	0
BRK	41	192	7
BRK	41	288	7
STR	42	0	0
SCL	42	0	0	96	192	3
STR	43	0	1
SV_	43	0	1	96	144	4
STR	43	0	7
SV_	43	0	7	96	144	4
STR	44	0	0
SCL	44	0	0	96	192	3
STR	45	0	2
SI_	45	0	2	96	144	5
STR	45	0	7
SI_	45	0	7	96	144	4
STR	46	0	6
SI_	46	0	6	96	96	1
STR	46	96	1
SCL	46	96	1	96	144	3
STR	47	0	1
SCL	47	0	1	96	96	6
STR	47	96	6
SI_	47	96	6	96	96	2
STR	47	192	2
SCR	47	192	2	96	72	5
STR	48	0	7
SI_	48	0	7	96	48	3
STR	48	192	0
SI_	48	192	0	96	48	4
TAP	49	0	1
TAP	49	0	6
STR	49	96	3
SI_	49	96	3	96	48	0
STR	49	96	4
SI_	49	96	4	96	48	7
STR	50	0	0
SCR	50	0	0	96	72	3
STR	50	0	4
SUL	50	0	4	96	72	7
STR	50	192	3
SUR	50	192	3	96	72	0
STR	50	192	7
SCL	50	192	7	96	72	4
STR	51	0	0
SCR	51	0	0	96	72	3
STR	51	0	4
SUL	51	0	4	96	72	7
STR	51	192	3
SUR	51	192	3	96	72	0
STR	51	192	7
SCL	51	192	7	96	72	4
HLD	52	0	0	96
HLD	52	0	4	96
HLD	52	192	2	96
HLD	52	192	6	96
TAP	53	0	3
TAP	53	0	7
TAP	53	48	2
TAP	53	48	6
TAP	53	96	1
TAP	53	96	5
TAP	53	144	0
TAP	53	144	4
BRK	53	192	3
BRK	53	192	7
STR	54	0	7
SV_	54	0	7	96	96	5
STR	54	192	6
SV_	54	192	6	96	96	4
STR	55	0	5
SV_	55	0	5	96	96	3
TAP	55	192	4
TAP	55	288	2
TAP	55	336	1
BRK	56	0	0
TAP	56	96	5
TAP	56	144	6
BRK	56	192	7
TAP	56	288	0
TAP	56	336	7
TAP	57	0	1
TAP	57	48	6
TAP	57	96	2
TAP	57	144	5
BRK	57	192	3
BRK	57	192	4
TAP	57	288	7
TAP	57	336	3
STR	58	0	3
SUR	58	0	3	96	72	0
STR	58	0	7
SCL	58	0	7	96	72	4
STR	58	192	0
SCR	58	192	0	96	72	3
STR	58	192	4
SUL	58	192	4	96	72	7
STR	59	0	3
SUR	59	0	3	96	72	0
STR	59	0	7
SCL	59	0	7	96	72	4
STR	59	192	0
SCR	59	192	0	96	72	3
STR	59	192	4
SUL	59	192	4	96	72	7
TAP	60	0	0
TAP	60	96	7
TAP	60	144	6
TAP	60	192	5
TAP	60	288	3
TAP	60	336	4
TAP	61	0	3
TAP	61	48	4
STR	61	96	1
SI_	61	96	1	96	48	5
TAP	61	144	6
TAP	61	288	4
TAP	61	336	4
STR	62	0	3
SI_	62	0	3	96	48	6
STR	62	192	4
SI_	62	192	4	96	48	1
STR	63	0	7
SI_	63	0	7	96	48	2
STR	63	192	0
SI_	63	192	0	96	48	5
TAP	64	0	0
STR	64	96	7
SI_	64	96	7	96	48	5
STR	64	288	0
SI_	64	288	0	96	48	4
STR	65	96	1
SI_	65	96	1	96	48	3
TAP	65	288	5
BRK	66	0	0
BRK	66	0	7

T_REC_TAP	133
T_REC_BRK	20
T_REC_XTP	0
T_REC_HLD	19
T_REC_XHO	0
T_REC_STR	97
T_REC_BST	0
T_REC_XST	0
T_REC_TTP	0
T_REC_THO	0
T_REC_SLD	97
T_REC_ALL	366
T_NUM_TAP	230
T_NUM_BRK	20
T_NUM_HLD	19
T_NUM_SLD	97
T_NUM_ALL	366
T_JUDGE_TAP	250
T_JUDGE_HLD	48
T_JUDGE_SLD	97
T_JUDGE_ALL	395
TTM_EACHPAIRS	49
TTM_SCR_TAP	115000
TTM_SCR_BRK	52000
TTM_SCR_HLD	19000
TTM_SCR_SLD	145500
TTM_SCR_ALL	331500
TTM_SCR_S	319650
TTM_SCR_SS	329500
TTM_RAT_ACV	10060

