VERSION	0.00.00	1.03.00
FES_MODE	0
BPM_DEF	135.000	135.000	135.000	135.000
MET_DEF	4	4
RESOLUTION	384
CLK_DEF	384
COMPATIBLE_CODE	MA2

BPM	0	0	135.000
MET	0	0	4	4

TAP	1	0	1
TAP	1	96	0
TAP	1	96	1
TAP	1	192	6
TAP	1	288	6
TAP	1	288	7
TAP	2	0	2
TAP	2	96	2
TAP	2	96	3
TAP	2	192	5
TAP	2	288	4
TAP	2	288	5
TAP	3	0	2
TAP	3	96	1
TAP	3	96	3
TAP	3	192	5
TAP	3	288	4
TAP	3	288	6
TAP	4	0	1
TAP	4	96	0
TAP	4	96	2
STR	4	192	2
SCR	4	192	2	96	96	5
TAP	5	0	6
TAP	5	96	6
TAP	5	96	7
TAP	5	192	1
TAP	5	288	0
TAP	5	288	1
TAP	6	0	5
TAP	6	96	4
TAP	6	96	5
TAP	6	192	2
TAP	6	288	2
TAP	6	288	3
TAP	7	0	5
TAP	7	96	4
TAP	7	96	6
TAP	7	192	2
TAP	7	288	1
TAP	7	288	3
STR	8	0	0
SI_	8	0	0	96	96	3
STR	8	192	7
SI_	8	192	7	96	96	4
TAP	9	0	3
TAP	9	96	4
TAP	9	192	4
TAP	9	192	5
TAP	10	0	4
TAP	10	96	3
TAP	10	192	2
TAP	10	192	3
HLD	11	0	2	96
HLD	11	192	3	96
TAP	12	0	4
TAP	12	0	5
TAP	12	96	2
TAP	12	96	3
TAP	12	192	1
HLD	13	0	0	96
TAP	13	96	7
TAP	13	192	6
HLD	14	0	7	96
TAP	14	96	0
TAP	14	192	1
HLD	15	0	2	96
TAP	15	96	3
HLD	15	192	5	96
TAP	15	288	4
TAP	16	0	4
TAP	16	0	5
TAP	16	96	3
TAP	16	96	4
BRK	16	192	2
BRK	16	192	3
HLD	17	0	3	192
HLD	17	192	4	192
TAP	18	0	3
TAP	18	96	2
TAP	18	192	0
TAP	18	192	1
HLD	19	0	7	192
HLD	19	192	0	192
TAP	20	0	7
TAP	20	96	6
TAP	20	192	4
TAP	20	192	5
STR	21	0	0
SI_	21	0	0	96	96	4
STR	21	192	7
SI_	21	192	7	96	96	3
TAP	22	0	1
TAP	22	96	1
TAP	22	192	1
HLD	23	0	3	96
HLD	23	0	7	96
HLD	23	192	1	96
HLD	23	192	5	96
TAP	24	0	3
TAP	24	0	4
TAP	24	96	2
TAP	24	96	5
HLD	24	192	1	96
HLD	24	192	6	96
STR	25	0	0
SCR	25	0	0	96	96	3
STR	25	0	7
SCL	25	0	7	96	96	4
TAP	26	0	0
TAP	26	96	7
TAP	26	192	6
TAP	26	288	5
TAP	27	0	3
TAP	27	0	4
TAP	27	96	2
TAP	27	96	3
TAP	27	192	1
TAP	27	192	2
TAP	28	0	7
TAP	28	96	0
TAP	28	192	1
TAP	28	288	2
TAP	29	0	3
TAP	29	0	4
TAP	29	96	4
TAP	29	96	5
TAP	29	192	5
TAP	29	192	6
HLD	30	0	1	96
TAP	30	96	0
HLD	30	192	6	96
TAP	30	288	7
TAP	31	0	0
TAP	31	0	4
TAP	31	96	1
TAP	31	96	5
TAP	31	192	2
TAP	31	192	6
HLD	32	0	3	96
HLD	32	0	7	96
HLD	32	192	0	96
HLD	32	192	4	96
TAP	33	0	3
TAP	33	0	7
TAP	33	96	2
TAP	33	96	6
BRK	33	192	1
BRK	33	192	5
TAP	34	0	6
TAP	34	96	4
TAP	34	192	2
TAP	34	288	0
TAP	35	0	6
TAP	35	0	7
TAP	35	96	4
TAP	35	96	5
TAP	35	192	2
TAP	35	192	3
TAP	36	0	1
TAP	36	96	3
TAP	36	192	5
TAP	36	288	7
TAP	37	0	0
TAP	37	0	1
TAP	37	96	2
TAP	37	96	3
TAP	37	192	4
TAP	37	192	5
HLD	38	0	6	96
TAP	38	96	7
HLD	38	192	0	96
HLD	38	192	1	96
HLD	39	0	2	96
TAP	39	96	3
HLD	39	192	4	96
HLD	39	192	5	96
STR	40	0	5
SUR	40	0	5	96	96	2
STR	41	0	1
SUR	41	0	1	96	96	6
TAP	42	0	0
TAP	42	192	1
HLD	43	0	2	192
HLD	43	0	3	192
TAP	44	0	4
TAP	44	192	5
TAP	45	0	6
TAP	45	0	7
TAP	45	96	6
TAP	45	96	7
TAP	45	192	6
TAP	45	192	7
TAP	46	0	5
TAP	46	96	5
TAP	46	192	4
TAP	46	288	4
TAP	47	0	3
TAP	47	96	2
TAP	47	192	0
TAP	47	192	1
TAP	48	0	2
TAP	48	96	2
TAP	48	192	3
TAP	48	288	3
TAP	49	0	4
TAP	49	96	5
BRK	49	192	6
BRK	49	192	7
TAP	49	288	4
TAP	50	0	2
TAP	50	96	0
TAP	50	192	6
TAP	50	288	4
TAP	51	0	3
TAP	51	48	4
TAP	51	96	3
TAP	51	144	4
TAP	51	192	3
TAP	51	288	2
TAP	51	288	3
TAP	52	0	1
TAP	52	96	3
TAP	52	192	5
TAP	52	288	7
TAP	53	0	0
TAP	53	48	7
TAP	53	96	0
TAP	53	144	7
TAP	53	192	0
TAP	53	288	6
TAP	53	288	7
TAP	54	0	5
TAP	54	96	4
TAP	54	96	5
TAP	54	192	2
TAP	54	288	2
TAP	54	288	3
TAP	55	0	0
TAP	55	0	1
TAP	55	96	0
TAP	55	96	7
TAP	55	192	6
TAP	55	192	7
TAP	55	288	0
HLD	56	0	0	288
TAP	56	96	7
HLD	56	192	7	96
TAP	57	0	3
TAP	57	0	4
TAP	57	96	2
TAP	57	96	5
BRK	57	192	1
BRK	57	192	6
TAP	57	288	0
TAP	57	288	7
STR	58	0	0
SCR	58	0	0	96	96	3
STR	58	192	4
SCR	58	192	4	96	96	7
TAP	59	0	1
TAP	59	96	3
TAP	59	192	2
TAP	59	192	4
TAP	59	288	5
STR	60	0	7
SCL	60	0	7	96	96	4
STR	60	192	3
SCL	60	192	3	96	96	0
TAP	61	0	6
TAP	61	96	4
TAP	61	192	3
TAP	61	192	5
TAP	61	288	2
TAP	62	0	1
TAP	62	0	3
TAP	62	96	5
TAP	62	192	4
TAP	62	192	6
TAP	62	288	0
TAP	62	288	1
TAP	63	0	1
TAP	63	0	7
TAP	63	96	6
TAP	63	96	7
TAP	63	192	0
TAP	63	192	6
TAP	63	288	0
TAP	63	288	7
STR	64	0	1
SI_	64	0	1	96	96	5
STR	64	192	7
SI_	64	192	7	96	96	4
TAP	65	0	3
TAP	65	96	2
TAP	65	192	1
TAP	65	288	0
TAP	66	0	0
TAP	66	0	7

T_REC_TAP	229
T_REC_BRK	8
T_REC_XTP	0
T_REC_HLD	32
T_REC_XHO	0
T_REC_STR	15
T_REC_BST	0
T_REC_XST	0
T_REC_TTP	0
T_REC_THO	0
T_REC_SLD	15
T_REC_ALL	299
T_NUM_TAP	244
T_NUM_BRK	8
T_NUM_HLD	32
T_NUM_SLD	15
T_NUM_ALL	299
T_JUDGE_TAP	252
T_JUDGE_HLD	80
T_JUDGE_SLD	15
T_JUDGE_ALL	347
TTM_EACHPAIRS	77
TTM_SCR_TAP	122000
TTM_SCR_BRK	20800
TTM_SCR_HLD	32000
TTM_SCR_SLD	22500
TTM_SCR_ALL	197300
TTM_SCR_S	190650
TTM_SCR_SS	196500
TTM_RAT_ACV	10040

