VERSION	0.00.00	1.03.00
FES_MODE	0
BPM_DEF	135.000	135.000	135.000	135.000
MET_DEF	4	4
RESOLUTION	384
CLK_DEF	384
COMPATIBLE_CODE	MA2

BPM	0	0	135.000
MET	0	0	4	4

TAP	1	96	7
TAP	1	288	7
TAP	2	96	6
TAP	2	288	6
TAP	3	96	5
TAP	3	288	5
TAP	4	96	4
TAP	4	288	4
TAP	5	96	3
TAP	5	288	2
TAP	6	96	1
TAP	6	288	0
HLD	7	0	0	96
HLD	7	192	7	96
TAP	8	0	0
TAP	8	192	0
TAP	8	192	7
TAP	9	0	0
TAP	9	96	0
TAP	9	192	1
TAP	10	0	1
TAP	10	96	1
TAP	10	192	2
TAP	11	0	2
TAP	11	96	2
TAP	11	192	3
TAP	11	288	3
TAP	12	0	2
TAP	12	96	2
TAP	12	192	3
TAP	13	0	4
TAP	13	96	4
TAP	13	192	5
TAP	14	0	5
TAP	14	96	5
TAP	14	192	6
TAP	15	0	6
TAP	15	96	6
TAP	15	192	7
TAP	15	288	7
TAP	16	0	6
TAP	16	96	6
TAP	16	192	7
STR	17	0	0
SI_	17	0	0	96	192	3
TAP	18	192	3
TAP	18	288	3
STR	19	0	4
SI_	19	0	4	96	192	7
TAP	20	192	7
TAP	20	288	7
STR	21	0	6
SI_	21	0	6	96	192	1
TAP	22	192	1
TAP	22	288	1
STR	23	0	2
SI_	23	0	2	96	192	5
TAP	24	192	5
TAP	24	288	5
TAP	25	0	6
BRK	25	192	0
BRK	25	192	7
TAP	26	0	0
TAP	26	96	1
TAP	26	192	2
TAP	26	288	3
HLD	27	0	3	192
TAP	28	0	4
TAP	28	96	5
TAP	28	192	6
TAP	28	288	7
HLD	29	0	7	192
TAP	30	0	7
TAP	30	96	7
TAP	30	192	1
TAP	30	192	7
TAP	31	0	0
TAP	31	96	0
TAP	31	192	0
TAP	31	192	6
HLD	32	0	5	96
HLD	32	192	3	96
HLD	33	0	1	96
TAP	33	192	7
TAP	34	0	0
TAP	34	96	0
TAP	34	192	1
TAP	34	288	1
TAP	35	0	2
TAP	35	96	1
TAP	35	192	2
TAP	36	0	7
TAP	36	96	7
TAP	36	192	6
TAP	36	288	6
TAP	37	0	5
TAP	37	96	6
TAP	37	192	5
TAP	38	0	4
TAP	38	96	4
TAP	38	192	5
TAP	38	288	5
TAP	39	0	6
TAP	39	96	6
TAP	39	192	7
TAP	39	288	7
HLD	40	0	0	384
HLD	40	0	7	384
STR	42	0	0
SI_	42	0	0	96	192	4
TAP	43	192	5
TAP	43	288	6
STR	44	0	7
SI_	44	0	7	96	192	3
TAP	45	192	2
TAP	45	288	1
HLD	46	0	0	96
HLD	46	192	7	96
HLD	47	0	0	96
HLD	47	192	7	96
HLD	48	0	1	96
HLD	48	192	6	96
HLD	49	0	1	96
BRK	49	192	7
TAP	50	0	0
TAP	50	0	7
TAP	50	96	0
TAP	50	96	7
TAP	50	192	0
TAP	50	192	1
TAP	50	288	0
TAP	50	288	1
HLD	51	0	1	96
HLD	51	0	2	96
HLD	51	192	1	96
HLD	51	192	2	96
TAP	52	0	2
TAP	52	0	3
TAP	52	96	2
TAP	52	96	3
TAP	52	192	3
TAP	52	192	4
TAP	52	288	3
TAP	52	288	4
HLD	53	0	4	96
HLD	53	0	5	96
HLD	53	192	4	96
HLD	53	192	5	96
TAP	54	0	6
TAP	54	96	6
TAP	54	192	6
TAP	54	288	6
TAP	55	0	5
TAP	55	96	5
TAP	55	192	5
TAP	55	288	5
STR	56	0	4
SI_	56	0	4	96	192	7
HLD	57	0	0	192
TAP	58	0	0
TAP	58	96	0
TAP	58	192	1
TAP	58	288	1
TAP	59	0	2
TAP	59	96	2
HLD	59	192	3	96
TAP	60	0	4
TAP	60	96	4
TAP	60	192	5
TAP	60	288	5
TAP	61	0	6
TAP	61	96	6
HLD	61	192	7	96
STR	62	0	7
SI_	62	0	7	96	192	3
STR	63	0	0
SI_	63	0	0	96	192	4
HLD	64	0	2	96
HLD	64	0	5	96
TAP	64	192	2
TAP	64	192	5
HLD	65	0	1	96
HLD	65	0	6	96
TAP	65	192	1
TAP	65	192	6
STR	66	0	0
SI_	66	0	0	96	192	3

T_REC_TAP	133
T_REC_BRK	3
T_REC_XTP	0
T_REC_HLD	31
T_REC_XHO	0
T_REC_STR	10
T_REC_BST	0
T_REC_XST	0
T_REC_TTP	0
T_REC_THO	0
T_REC_SLD	10
T_REC_ALL	187
T_NUM_TAP	143
T_NUM_BRK	3
T_NUM_HLD	31
T_NUM_SLD	10
T_NUM_ALL	187
T_JUDGE_TAP	146
T_JUDGE_HLD	80
T_JUDGE_SLD	10
T_JUDGE_ALL	236
TTM_EACHPAIRS	21
TTM_SCR_TAP	71500
TTM_SCR_BRK	7800
TTM_SCR_HLD	31000
TTM_SCR_SLD	15000
TTM_SCR_ALL	125300
TTM_SCR_S	121250
TTM_SCR_SS	125000
TTM_RAT_ACV	10024

