VERSION	0.00.00	1.03.00
FES_MODE	0
BPM_DEF	132.000	132.000	132.000	132.000
MET_DEF	4	4
RESOLUTION	384
CLK_DEF	384
COMPATIBLE_CODE	MA2

BPM	0	0	132.000
MET	0	0	4	4

STR	2	0	7
SCL	2	0	7	96	192	0
STR	3	0	6
SUL	3	0	6	96	96	1
STR	3	192	2
SUL	3	192	2	96	96	5
STR	4	0	7
SUR	4	0	7	96	96	4
STR	4	192	0
SUL	4	192	0	96	96	3
STR	5	0	7
SUL	5	0	7	96	192	4
STR	6	0	0
SCR	6	0	0	96	192	7
STR	7	0	7
SSR	7	0	7	96	96	3
STR	7	192	0
SSL	7	192	0	96	96	4
STR	8	0	7
SCL	8	0	7	96	192	0
TAP	9	0	7
TAP	9	96	7
TAP	9	192	7
TAP	9	204	0
TAP	9	216	1
TAP	9	228	2
TAP	9	240	3
TAP	9	252	4
TAP	9	264	5
TAP	9	276	6
BRK	9	288	7
STR	10	0	1
SCR	10	0	1	96	48	4
STR	10	0	5
SCR	10	0	5	96	48	0
STR	10	192	1
SCR	10	192	1	96	48	4
STR	10	192	5
SCR	10	192	5	96	48	0
STR	11	0	6
SI_	11	0	6	96	48	1
HLD	11	192	0	48
HLD	11	192	2	48
HLD	11	288	0	48
HLD	11	288	2	48
STR	12	0	1
SCR	12	0	1	96	48	4
STR	12	0	5
SCR	12	0	5	96	48	0
STR	12	192	1
SCR	12	192	1	96	48	4
STR	12	192	5
SCR	12	192	5	96	48	0
STR	13	0	1
SI_	13	0	1	96	48	6
BRK	13	192	5
BRK	13	192	7
TAP	13	240	4
TAP	13	240	6
BRK	13	288	5
BRK	13	288	7
STR	14	0	2
SCL	14	0	2	96	48	7
STR	14	0	6
SCL	14	0	6	96	48	3
STR	14	192	2
SCL	14	192	2	96	48	7
STR	14	192	6
SCL	14	192	6	96	48	3
STR	15	0	6
SI_	15	0	6	96	48	1
HLD	15	192	0	48
HLD	15	192	2	48
HLD	15	288	0	48
HLD	15	288	2	48
STR	16	0	2
SCL	16	0	2	96	48	7
STR	16	0	6
SCL	16	0	6	96	48	3
STR	16	192	2
SCL	16	192	2	96	48	7
STR	16	192	6
SCL	16	192	6	96	48	3
TAP	17	0	2
TAP	17	0	5
STR	17	96	3
SI_	17	96	3	96	96	6
STR	17	96	4
SI_	17	96	4	96	96	1
STR	18	0	0
SUL	18	0	0	96	96	4
STR	18	192	1
SUL	18	192	1	96	96	4
STR	19	0	2
SUL	19	0	2	96	96	4
STR	19	192	3
SUL	19	192	3	96	96	4
STR	20	0	7
SUR	20	0	7	96	96	3
STR	20	192	6
SUR	20	192	6	96	96	3
STR	21	0	5
SUR	21	0	5	96	96	3
STR	21	192	4
SUR	21	192	4	96	96	3
STR	22	0	0
SUL	22	0	0	96	96	2
STR	22	192	7
SUR	22	192	7	96	96	5
STR	23	0	0
SUR	23	0	0	96	192	2
STR	24	0	6
SUR	24	0	6	96	96	4
STR	24	192	1
SUL	24	192	1	96	96	3
STR	25	0	6
SUL	25	0	6	96	192	4
TAP	26	0	0
STR	26	96	0
SUR	26	96	0	96	96	5
TAP	26	192	7
STR	26	288	7
SUL	26	288	7	96	96	2
TAP	27	0	1
STR	27	96	1
SUL	27	96	1	96	96	4
TAP	27	192	6
STR	27	288	6
SUR	27	288	6	96	96	3
HLD	28	0	2	384
STR	28	144	1
SUL	28	144	1	96	96	3
HLD	29	0	5	384
STR	29	144	6
SUR	29	144	6	96	96	4
STR	30	0	0
SUR	30	0	0	96	96	5
TAP	30	96	0
STR	30	192	0
SUL	30	192	0	96	96	3
TAP	30	288	0
STR	31	0	7
SUR	31	0	7	96	96	4
TAP	31	96	7
STR	31	192	7
SUL	31	192	7	96	96	2
TAP	31	288	7
STR	32	0	1
SUL	32	0	1	96	96	2
TAP	32	48	1
STR	32	192	6
SUR	32	192	6	96	96	5
TAP	32	240	6
BRK	33	96	6
BRK	33	96	7
BRK	33	192	0
BRK	33	192	7
BRK	33	288	0
BRK	33	288	1
TAP	34	0	7
TAP	34	12	6
TAP	34	24	5
TAP	34	36	4
TAP	34	48	3
TAP	34	60	2
TAP	34	72	1
TAP	34	84	0
TAP	34	96	7
TAP	34	108	6
TAP	34	120	5
TAP	34	132	4
TAP	34	144	3
TAP	34	156	2
TAP	34	168	1
TAP	34	180	0
TAP	34	192	7
TAP	34	204	6
TAP	34	216	5
TAP	34	228	4
TAP	34	240	3
TAP	34	252	2
TAP	34	264	1
TAP	34	276	0
TAP	34	288	7
TAP	34	300	6
TAP	34	312	5
TAP	34	324	4
TAP	34	336	3
TAP	34	348	2
TAP	34	360	1
TAP	34	372	0
TAP	35	0	7
TAP	35	192	5
TAP	35	192	7
TAP	35	288	0
TAP	35	288	2
STR	36	0	5
SCR	36	0	5	96	48	0
STR	36	0	7
SI_	36	0	7	96	48	2
STR	36	192	0
SI_	36	192	0	96	48	5
STR	36	192	2
SCL	36	192	2	96	48	7
STR	37	0	4
SI_	37	0	4	96	48	1
STR	37	0	6
SCL	37	0	6	96	48	3
STR	37	192	1
SCR	37	192	1	96	48	4
STR	37	192	3
SI_	37	192	3	96	48	6
TAP	38	0	4
TAP	38	0	7
TAP	38	96	0
TAP	38	96	3
BRK	38	192	5
BRK	38	192	6
BRK	38	288	1
BRK	38	288	2
HLD	39	0	1	96
TAP	39	0	6
HLD	39	96	3	96
TAP	39	192	4
STR	39	288	3
SUR	39	288	3	96	288	4
STR	39	288	4
SCR	39	288	4	96	288	3
BRK	41	96	1
BRK	41	192	6
BRK	41	288	1
STR	42	0	7
SCL	42	0	7	96	96	3
STR	42	96	3
SCL	42	96	3	96	96	7
STR	42	192	7
SCL	42	192	7	96	48	5
STR	43	0	2
SUR	43	0	2	96	48	7
STR	43	192	6
SUR	43	192	6	96	48	3
STR	44	0	2
SV_	44	0	2	96	48	4
STR	44	96	5
SV_	44	96	5	96	48	3
STR	44	192	1
SUL	44	192	1	96	48	4
STR	44	288	6
SUR	44	288	6	96	48	3
TAP	45	0	0
TAP	45	96	0
TAP	45	192	0
TAP	45	204	7
TAP	45	216	6
TAP	45	228	5
TAP	45	240	4
TAP	45	252	3
TAP	45	264	2
TAP	45	276	1
BRK	45	288	0
STR	46	0	0
SCR	46	0	0	96	96	4
STR	46	96	4
SCR	46	96	4	96	96	0
STR	46	192	0
SCR	46	192	0	96	48	2
STR	47	0	7
SSR	47	0	7	96	96	3
STR	47	192	0
SSL	47	192	0	96	96	4
STR	48	0	7
SCL	48	0	7	96	192	0
TAP	49	0	7
TAP	49	96	7
TAP	49	192	7
TAP	49	204	0
TAP	49	216	1
TAP	49	228	2
TAP	49	240	3
TAP	49	252	4
TAP	49	264	5
TAP	49	276	6
BRK	49	288	7
STR	50	0	0
SCR	50	0	0	96	96	3
STR	50	192	7
SUR	50	192	7	96	96	4
STR	51	0	6
SUL	51	0	6	96	192	5
STR	52	0	1
SCR	52	0	1	96	192	6
STR	52	0	6
SV_	52	0	6	96	192	1
HLD	53	0	5	192
STR	53	96	7
SUL	53	96	7	96	144	2
BRK	53	240	0
BRK	53	288	1
STR	54	0	2
SCL	54	0	2	96	48	0
STR	54	0	6
SCL	54	0	6	96	48	4
STR	54	192	1
SI_	54	192	1	96	48	3
STR	54	192	5
SI_	54	192	5	96	48	7
STR	55	0	2
SV_	55	0	2	96	96	0
STR	55	0	6
SV_	55	0	6	96	96	4
STR	56	0	0
SUR	56	0	0	96	96	2
STR	56	192	7
SUL	56	192	7	96	96	5
TAP	57	0	0
TAP	57	96	0
TAP	57	192	0
TAP	57	204	7
TAP	57	216	6
TAP	57	228	5
TAP	57	240	4
TAP	57	252	3
TAP	57	264	2
TAP	57	276	1
BRK	57	288	0
BRK	57	288	7
STR	58	0	1
SCR	58	0	1	96	48	4
STR	58	0	5
SCR	58	0	5	96	48	0
STR	58	192	1
SCR	58	192	1	96	48	4
STR	58	192	5
SCR	58	192	5	96	48	0
STR	59	0	1
SI_	59	0	1	96	48	6
HLD	59	192	5	48
HLD	59	192	7	48
HLD	59	288	5	48
HLD	59	288	7	48
STR	60	0	1
SCR	60	0	1	96	48	4
STR	60	0	5
SCR	60	0	5	96	48	0
STR	60	192	1
SCR	60	192	1	96	48	4
STR	60	192	5
SCR	60	192	5	96	48	0
STR	61	0	6
SI_	61	0	6	96	48	1
BRK	61	192	0
BRK	61	192	2
TAP	61	240	1
TAP	61	240	3
BRK	61	288	0
BRK	61	288	2
STR	62	0	2
SCL	62	0	2	96	48	7
STR	62	0	6
SCL	62	0	6	96	48	3
STR	62	192	2
SCL	62	192	2	96	48	7
STR	62	192	6
SCL	62	192	6	96	48	3
STR	63	0	1
SI_	63	0	1	96	48	6
HLD	63	192	5	48
HLD	63	192	7	48
HLD	63	288	5	48
HLD	63	288	7	48
STR	64	0	2
SCL	64	0	2	96	48	7
STR	64	0	6
SCL	64	0	6	96	48	3
STR	64	192	2
SCL	64	192	2	96	48	7
STR	64	192	6
SCL	64	192	6	96	48	3
TAP	65	0	4
TAP	65	0	5
TAP	65	96	2
STR	65	96	3
SI_	65	96	3	96	96	7

T_REC_TAP	102
T_REC_BRK	28
T_REC_XTP	0
T_REC_HLD	21
T_REC_XHO	0
T_REC_STR	116
T_REC_BST	0
T_REC_XST	0
T_REC_TTP	0
T_REC_THO	0
T_REC_SLD	116
T_REC_ALL	383
T_NUM_TAP	218
T_NUM_BRK	28
T_NUM_HLD	21
T_NUM_SLD	116
T_NUM_ALL	383
T_JUDGE_TAP	246
T_JUDGE_HLD	40
T_JUDGE_SLD	116
T_JUDGE_ALL	402
TTM_EACHPAIRS	54
TTM_SCR_TAP	109000
TTM_SCR_BRK	72800
TTM_SCR_HLD	21000
TTM_SCR_SLD	174000
TTM_SCR_ALL	376800
TTM_SCR_S	362800
TTM_SCR_SS	374000
TTM_RAT_ACV	10074

