VERSION	0.00.00	1.03.00
FES_MODE	0
BPM_DEF	132.000	132.000	132.000	132.000
MET_DEF	4	4
RESOLUTION	384
CLK_DEF	384
COMPATIBLE_CODE	MA2

BPM	0	0	132.000
MET	0	0	4	4

STR	2	0	6
SUL	2	0	6	96	240	3
HLD	3	0	1	96
TAP	3	96	2
HLD	3	192	6	96
TAP	3	288	5
STR	4	0	3
SI_	4	0	3	96	48	0
STR	4	192	4
SI_	4	192	4	96	48	7
TAP	5	0	0
TAP	5	96	1
TAP	5	96	7
STR	5	192	2
SI_	5	192	2	96	48	4
STR	5	192	6
SI_	5	192	6	96	48	4
STR	6	0	1
SUR	6	0	1	96	240	4
HLD	7	0	6	96
TAP	7	96	5
HLD	7	192	1	96
TAP	7	288	2
STR	8	0	1
SCR	8	0	1	96	144	4
TAP	8	0	5
TAP	8	96	6
TAP	8	192	7
TAP	8	288	0
TAP	9	0	1
TAP	9	0	6
STR	9	96	0
SI_	9	96	0	96	48	3
STR	9	96	7
SI_	9	96	7	96	48	4
BRK	9	288	1
STR	10	0	4
SCL	10	0	4	96	48	2
TAP	10	0	5
TAP	10	192	2
STR	10	192	3
SCR	10	192	3	96	48	5
TAP	11	0	2
TAP	11	0	3
TAP	11	96	1
TAP	11	96	2
BRK	11	192	0
BRK	11	288	0
TAP	12	0	2
STR	12	0	3
SCR	12	0	3	96	48	5
STR	12	192	4
SCL	12	192	4	96	48	2
TAP	12	192	5
TAP	13	0	1
STR	13	96	1
SCR	13	96	1	96	48	3
STR	13	192	6
SCL	13	192	6	96	48	4
TAP	14	0	0
TAP	14	96	1
TAP	14	192	7
TAP	14	288	6
TAP	15	0	1
TAP	15	0	2
TAP	15	96	1
TAP	15	96	2
TAP	15	192	0
STR	15	192	3
SI_	15	192	3	96	48	0
TAP	16	0	1
TAP	16	96	3
TAP	16	192	6
TAP	16	288	4
TAP	17	0	5
TAP	17	0	6
TAP	17	96	5
STR	17	96	6
SCR	17	96	6	96	144	3
TAP	18	0	7
TAP	18	96	3
STR	18	192	1
SI_	18	192	1	96	48	5
TAP	19	0	7
TAP	19	96	2
STR	19	192	4
SI_	19	192	4	96	48	0
TAP	20	0	3
TAP	20	96	6
STR	20	192	1
SI_	20	192	1	96	48	5
TAP	21	0	3
TAP	21	0	7
STR	21	96	0
SI_	21	96	0	96	48	4
STR	21	96	6
SI_	21	96	6	96	48	2
STR	22	0	5
SI_	22	0	5	96	48	1
TAP	22	192	3
TAP	22	288	7
STR	23	0	6
SI_	23	0	6	96	48	2
TAP	23	192	1
TAP	23	288	5
STR	24	0	3
SI_	24	0	3	96	48	7
TAP	24	192	5
STR	24	288	1
SCL	24	288	1	96	192	5
TAP	26	0	4
TAP	26	96	3
STR	26	192	2
SV_	26	192	2	96	96	3
TAP	27	0	0
TAP	27	96	7
STR	27	192	6
SV_	27	192	6	96	96	7
TAP	28	0	4
TAP	28	96	3
STR	28	192	2
SV_	28	192	2	96	96	3
TAP	29	0	0
TAP	29	96	7
STR	29	192	6
SV_	29	192	6	96	96	7
TAP	30	0	3
TAP	30	96	4
STR	30	192	5
SV_	30	192	5	96	96	4
TAP	31	0	7
TAP	31	96	0
STR	31	192	1
SV_	31	192	1	96	96	0
STR	32	0	2
SUL	32	0	2	96	96	5
STR	32	192	6
SUL	32	192	6	96	96	1
TAP	33	96	2
TAP	33	192	1
STR	33	288	0
SCL	33	288	0	96	192	4
STR	35	0	7
SCR	35	0	7	96	96	2
HLD	36	0	0	72
HLD	36	72	1	72
TAP	36	144	2
HLD	36	192	7	72
HLD	36	264	6	72
TAP	36	336	5
HLD	37	0	0	72
HLD	37	72	7	72
TAP	37	144	1
HLD	37	192	5	72
HLD	37	264	3	72
TAP	37	336	4
TAP	38	0	4
STR	38	96	2
SCR	38	96	2	96	48	4
STR	38	192	5
SCL	38	192	5	96	48	2
TAP	39	48	1
TAP	39	96	2
TAP	39	144	3
TAP	39	240	4
TAP	39	240	5
TAP	39	336	6
STR	40	0	7
SCR	40	0	7	96	144	3
BRK	41	0	0
BRK	41	96	2
BRK	41	192	4
BRK	41	288	6
STR	42	0	6
SUL	42	0	6	96	192	3
TAP	43	0	5
TAP	43	0	7
TAP	43	96	6
TAP	43	192	0
TAP	43	192	2
TAP	43	288	1
STR	44	0	4
SI_	44	0	4	96	48	7
STR	44	192	3
SI_	44	192	3	96	48	0
TAP	45	0	0
TAP	45	96	1
TAP	45	96	7
STR	45	192	2
SI_	45	192	2	96	48	4
STR	45	192	6
SI_	45	192	6	96	48	4
STR	46	0	1
SUR	46	0	1	96	192	4
STR	47	0	1
SV_	47	0	1	96	96	4
STR	47	192	6
SV_	47	192	6	96	96	3
TAP	48	48	1
TAP	48	96	2
TAP	48	144	1
TAP	48	192	2
TAP	48	288	0
TAP	48	288	7
TAP	49	0	6
TAP	49	48	5
TAP	49	96	6
TAP	49	144	5
BRK	49	288	1
STR	50	0	4
SCL	50	0	4	96	48	2
TAP	50	0	5
TAP	50	192	2
STR	50	192	3
SCR	50	192	3	96	48	5
STR	51	0	3
SCL	51	0	3	96	48	1
TAP	51	0	4
TAP	51	192	3
STR	51	192	4
SCR	51	192	4	96	48	6
TAP	52	0	3
TAP	52	48	2
TAP	52	96	1
TAP	52	144	0
TAP	52	192	7
TAP	52	240	6
TAP	52	288	5
TAP	52	336	4
TAP	53	0	4
TAP	53	48	5
TAP	53	96	6
TAP	53	144	7
TAP	53	192	0
TAP	53	240	1
TAP	53	288	2
TAP	53	336	3
TAP	54	0	4
TAP	54	96	4
TAP	54	96	5
TAP	54	192	3
TAP	54	288	2
TAP	54	288	3
TAP	55	0	4
TAP	55	96	4
TAP	55	96	6
TAP	55	192	1
TAP	55	192	3
TAP	55	288	0
TAP	55	288	7
STR	56	0	6
SCL	56	0	6	96	48	3
STR	56	192	7
SCR	56	192	7	96	48	2
TAP	57	0	1
TAP	57	0	4
TAP	57	96	0
TAP	57	96	5
TAP	57	192	6
TAP	57	192	7
BRK	57	288	0
TAP	58	0	2
TAP	58	48	3
TAP	58	72	2
TAP	58	192	5
TAP	58	240	4
TAP	58	264	5
STR	59	0	1
SI_	59	0	1	96	48	4
STR	59	192	5
SI_	59	192	5	96	48	0
TAP	60	0	1
TAP	60	48	0
TAP	60	72	1
TAP	60	192	6
TAP	60	240	7
TAP	60	264	6
STR	61	0	2
SI_	61	0	2	96	48	7
STR	61	192	6
SI_	61	192	6	96	48	3
TAP	62	0	1
TAP	62	0	4
TAP	62	48	2
TAP	62	72	3
TAP	62	192	3
TAP	62	192	6
TAP	62	240	5
TAP	62	264	4
TAP	63	0	2
TAP	63	0	3
STR	63	96	4
SI_	63	96	4	96	48	1
STR	63	192	5
SI_	63	192	5	96	48	0
TAP	64	0	2
TAP	64	0	7
TAP	64	48	1
TAP	64	72	0
TAP	64	192	0
TAP	64	192	5
TAP	64	240	6
TAP	64	264	7
TAP	65	0	1
TAP	65	0	5
TAP	65	96	2
TAP	65	96	6
BRK	65	192	0
BRK	65	192	7

T_REC_TAP	168
T_REC_BRK	11
T_REC_XTP	0
T_REC_HLD	12
T_REC_XHO	0
T_REC_STR	59
T_REC_BST	0
T_REC_XST	0
T_REC_TTP	0
T_REC_THO	0
T_REC_SLD	59
T_REC_ALL	309
T_NUM_TAP	227
T_NUM_BRK	11
T_NUM_HLD	12
T_NUM_SLD	59
T_NUM_ALL	309
T_JUDGE_TAP	238
T_JUDGE_HLD	24
T_JUDGE_SLD	59
T_JUDGE_ALL	321
TTM_EACHPAIRS	44
TTM_SCR_TAP	113500
TTM_SCR_BRK	28600
TTM_SCR_HLD	12000
TTM_SCR_SLD	88500
TTM_SCR_ALL	242600
TTM_SCR_S	234300
TTM_SCR_SS	241500
TTM_RAT_ACV	10045

