VERSION	0.00.00	1.03.00
FES_MODE	0
BPM_DEF	132.000	132.000	132.000	132.000
MET_DEF	4	4
RESOLUTION	384
CLK_DEF	384
COMPATIBLE_CODE	MA2

BPM	0	0	132.000
MET	0	0	4	4

STR	2	0	0
SCR	2	0	0	96	192	3
TAP	3	0	5
TAP	3	96	5
TAP	3	192	1
TAP	3	288	1
HLD	4	0	4	96
HLD	4	0	5	96
HLD	4	192	1	96
HLD	4	192	3	96
TAP	5	0	0
TAP	5	0	1
TAP	5	96	0
TAP	5	96	7
TAP	5	192	1
TAP	5	192	6
STR	6	0	4
SCR	6	0	4	96	192	7
TAP	7	0	1
TAP	7	96	1
TAP	7	192	5
TAP	7	288	5
HLD	8	0	6	96
HLD	8	0	7	96
HLD	8	192	0	96
HLD	8	192	2	96
TAP	9	0	1
TAP	9	96	3
TAP	9	192	5
BRK	9	288	7
STR	10	0	0
SCR	10	0	0	96	288	5
TAP	11	192	7
TAP	11	288	7
STR	12	0	7
SCL	12	0	7	96	288	2
TAP	13	192	1
TAP	13	288	1
STR	14	0	1
SCR	14	0	1	96	288	6
TAP	15	192	7
TAP	15	288	7
STR	16	0	6
SCL	16	0	6	96	288	1
BRK	17	192	0
TAP	18	0	4
TAP	18	96	4
HLD	18	192	1	96
TAP	19	0	3
TAP	19	96	3
HLD	19	192	6	96
TAP	20	0	1
TAP	20	96	0
TAP	20	192	7
TAP	20	288	6
HLD	21	0	5	144
TAP	21	240	5
TAP	22	0	3
TAP	22	96	3
HLD	22	192	6	96
TAP	23	0	4
TAP	23	96	4
HLD	23	192	1	96
TAP	24	0	6
TAP	24	96	7
TAP	24	192	0
TAP	24	288	1
HLD	25	0	2	288
BRK	25	288	3
TAP	26	0	4
TAP	26	96	3
HLD	26	192	1	96
TAP	26	288	7
TAP	27	0	3
TAP	27	96	4
HLD	27	192	6	96
TAP	27	288	0
TAP	28	0	1
TAP	28	96	0
TAP	28	192	7
TAP	28	288	6
HLD	29	0	5	144
TAP	29	240	5
TAP	30	0	3
TAP	30	96	2
HLD	30	192	6	96
TAP	30	288	7
TAP	31	0	4
TAP	31	96	5
HLD	31	192	1	96
TAP	31	288	0
TAP	32	0	6
TAP	32	96	7
TAP	32	192	0
TAP	32	288	1
TAP	33	0	2
TAP	33	0	4
TAP	33	96	2
TAP	33	96	4
TAP	33	192	3
TAP	33	192	6
TAP	33	288	3
TAP	33	288	6
STR	34	0	0
SCR	34	0	0	96	288	3
STR	34	0	4
SCR	34	0	4	96	288	7
TAP	35	192	7
TAP	35	288	7
STR	36	0	3
SCL	36	0	3	96	288	0
STR	36	0	7
SCL	36	0	7	96	288	4
TAP	37	192	0
TAP	37	288	0
TAP	38	0	6
TAP	38	96	6
TAP	38	192	1
TAP	38	192	4
TAP	38	288	1
TAP	38	288	4
HLD	39	0	5	96
HLD	39	192	1	96
HLD	40	0	0	288
HLD	40	0	7	288
TAP	41	0	1
TAP	41	96	0
TAP	41	192	7
BRK	41	288	6
STR	42	0	1
SCL	42	0	1	96	192	5
STR	43	0	6
SCR	43	0	6	96	192	2
TAP	44	0	1
TAP	44	192	0
TAP	45	0	7
TAP	45	96	6
HLD	45	192	4	96
HLD	45	192	5	96
STR	46	0	5
SCR	46	0	5	96	192	1
STR	47	0	2
SCL	47	0	2	96	192	6
TAP	48	0	4
TAP	48	192	0
TAP	48	192	1
TAP	49	0	0
TAP	49	96	7
TAP	49	192	0
TAP	49	192	7
BRK	49	288	1
BRK	49	288	6
TAP	50	0	2
TAP	50	96	2
TAP	50	96	3
TAP	50	192	5
TAP	50	288	4
TAP	50	288	5
HLD	51	0	2	96
HLD	51	0	4	96
TAP	51	192	1
TAP	51	192	5
STR	52	0	0
SCR	52	0	0	96	96	2
STR	53	0	7
SCL	53	0	7	96	96	5
TAP	54	0	5
TAP	54	96	3
TAP	54	96	6
TAP	54	192	2
TAP	54	288	1
TAP	54	288	4
HLD	55	0	3	96
HLD	55	0	5	96
TAP	55	192	2
TAP	55	192	6
STR	56	0	3
SCL	56	0	3	96	96	1
STR	57	0	4
SCR	57	0	4	96	96	6
STR	58	0	0
SCR	58	0	0	96	288	5
TAP	59	192	0
TAP	59	192	7
TAP	59	288	0
TAP	59	288	7
STR	60	0	7
SCL	60	0	7	96	288	2
TAP	61	192	0
TAP	61	192	1
TAP	61	288	0
TAP	61	288	1
STR	62	0	1
SCR	62	0	1	96	288	6
TAP	63	192	6
TAP	63	192	7
TAP	63	288	6
TAP	63	288	7
STR	64	0	6
SCL	64	0	6	96	288	1
TAP	65	192	3
BRK	65	192	7

T_REC_TAP	122
T_REC_BRK	7
T_REC_XTP	0
T_REC_HLD	29
T_REC_XHO	0
T_REC_STR	22
T_REC_BST	0
T_REC_XST	0
T_REC_TTP	0
T_REC_THO	0
T_REC_SLD	22
T_REC_ALL	202
T_NUM_TAP	144
T_NUM_BRK	7
T_NUM_HLD	29
T_NUM_SLD	22
T_NUM_ALL	202
T_JUDGE_TAP	151
T_JUDGE_HLD	72
T_JUDGE_SLD	22
T_JUDGE_ALL	245
TTM_EACHPAIRS	35
TTM_SCR_TAP	72000
TTM_SCR_BRK	18200
TTM_SCR_HLD	29000
TTM_SCR_SLD	33000
TTM_SCR_ALL	152200
TTM_SCR_S	147000
TTM_SCR_SS	151500
TTM_RAT_ACV	10046

