VERSION	0.00.00	1.03.00
FES_MODE	0
BPM_DEF	132.000	132.000	132.000	132.000
MET_DEF	4	4
RESOLUTION	384
CLK_DEF	384
COMPATIBLE_CODE	MA2

BPM	0	0	132.000
MET	0	0	4	4

TAP	3	0	6
TAP	3	192	1
TAP	4	0	1
TAP	5	0	1
TAP	5	0	6
TAP	5	192	1
TAP	5	192	6
TAP	7	0	0
TAP	7	0	7
TAP	8	0	5
TAP	8	192	2
TAP	9	0	3
TAP	9	0	4
TAP	9	192	2
TAP	9	192	5
TAP	10	0	6
TAP	10	192	2
TAP	11	0	6
TAP	11	192	0
TAP	11	192	7
TAP	11	288	0
TAP	11	288	7
TAP	12	0	2
TAP	12	192	2
TAP	13	192	6
TAP	13	288	6
TAP	14	0	5
TAP	14	192	5
TAP	15	0	7
TAP	15	192	6
TAP	15	288	6
TAP	16	0	6
TAP	16	192	6
TAP	17	0	2
TAP	17	0	5
TAP	17	96	2
TAP	17	96	5
TAP	18	0	2
TAP	19	0	7
TAP	19	192	2
TAP	19	192	5
HLD	20	0	7	192
TAP	21	0	2
TAP	21	0	6
TAP	22	0	1
TAP	22	192	1
TAP	23	0	1
TAP	23	0	6
TAP	24	0	7
TAP	24	192	1
TAP	25	0	6
BRK	25	192	6
TAP	26	0	5
TAP	26	192	2
TAP	27	0	1
TAP	27	192	7
TAP	28	0	3
TAP	28	192	4
TAP	29	0	1
TAP	29	0	6
TAP	29	192	2
TAP	29	192	5
TAP	30	0	3
TAP	30	0	4
TAP	30	192	2
TAP	31	192	1
TAP	31	192	6
TAP	32	0	1
TAP	32	0	6
TAP	32	192	1
TAP	33	192	2
TAP	33	192	3
TAP	34	0	2
TAP	35	0	5
TAP	36	0	1
TAP	36	0	6
TAP	36	192	3
TAP	36	192	4
TAP	37	0	6
TAP	37	192	6
TAP	38	0	2
TAP	38	192	4
TAP	39	0	2
TAP	39	192	3
TAP	39	192	4
HLD	40	0	0	192
HLD	40	0	7	192
TAP	41	0	1
TAP	41	96	0
TAP	41	192	7
BRK	41	288	6
TAP	42	96	0
TAP	42	288	0
TAP	43	96	6
TAP	43	288	1
TAP	44	0	1
TAP	45	0	1
TAP	45	0	6
TAP	45	192	1
TAP	45	192	6
TAP	47	0	0
TAP	47	0	7
TAP	48	0	5
TAP	48	192	2
TAP	49	0	3
TAP	49	0	4
TAP	49	192	2
TAP	49	192	5
TAP	50	0	4
TAP	51	0	4
TAP	51	192	4
TAP	52	0	3
TAP	52	192	3
TAP	53	0	1
TAP	53	0	6
TAP	53	192	5
TAP	54	0	5
TAP	54	192	2
HLD	55	0	3	96
HLD	55	0	4	96
TAP	55	192	1
TAP	55	192	6
TAP	56	0	7
TAP	56	192	7
TAP	57	0	1
TAP	57	96	1
BRK	57	192	2
TAP	58	0	5
TAP	58	192	2
TAP	59	0	6
TAP	59	192	1
TAP	59	288	1
TAP	60	0	1
TAP	60	192	1
TAP	61	0	5
TAP	61	192	1
TAP	61	288	1
TAP	62	0	7
TAP	62	192	0
TAP	63	0	1
TAP	63	0	6
TAP	63	192	0
TAP	63	192	7
TAP	63	288	0
TAP	63	288	7
STR	64	0	6
SI_	64	0	6	96	192	1
BRK	65	192	7

T_REC_TAP	137
T_REC_BRK	4
T_REC_XTP	0
T_REC_HLD	5
T_REC_XHO	0
T_REC_STR	1
T_REC_BST	0
T_REC_XST	0
T_REC_TTP	0
T_REC_THO	0
T_REC_SLD	1
T_REC_ALL	148
T_NUM_TAP	138
T_NUM_BRK	4
T_NUM_HLD	5
T_NUM_SLD	1
T_NUM_ALL	148
T_JUDGE_TAP	142
T_JUDGE_HLD	16
T_JUDGE_SLD	1
T_JUDGE_ALL	159
TTM_EACHPAIRS	33
TTM_SCR_TAP	69000
TTM_SCR_BRK	10400
TTM_SCR_HLD	5000
TTM_SCR_SLD	1500
TTM_SCR_ALL	85900
TTM_SCR_S	82950
TTM_SCR_SS	85500
TTM_RAT_ACV	10046

