VERSION	0.00.00	1.03.00
FES_MODE	0
BPM_DEF	136.700	136.700	136.700	136.700
MET_DEF	4	4
RESOLUTION	384
CLK_DEF	384
COMPATIBLE_CODE	MA2

BPM	0	0	136.700
MET	0	0	4	4

HLD	2	0	1	72
TAP	2	72	0
TAP	2	144	2
STR	2	192	1
SI_	2	192	1	96	48	5
TAP	2	192	3
HLD	3	0	6	72
TAP	3	72	7
TAP	3	144	5
TAP	3	192	4
STR	3	192	6
SI_	3	192	6	96	48	2
HLD	4	0	1	72
TAP	4	72	6
TAP	4	144	0
TAP	4	144	7
STR	4	192	1
SI_	4	192	1	96	48	4
STR	4	192	6
SI_	4	192	6	96	48	3
HLD	5	0	6	72
TAP	5	72	1
TAP	5	144	2
TAP	5	144	5
STR	5	192	3
SI_	5	192	3	96	48	7
STR	5	192	4
SI_	5	192	4	96	48	0
HLD	6	0	5	72
TAP	6	72	4
TAP	6	144	6
TAP	6	192	5
STR	6	192	7
SI_	6	192	7	96	48	3
HLD	7	0	2	72
TAP	7	72	3
TAP	7	144	1
STR	7	192	0
SI_	7	192	0	96	48	4
TAP	7	192	2
HLD	8	0	7	72
TAP	8	72	0
TAP	8	144	1
TAP	8	144	6
STR	8	192	0
SI_	8	192	0	96	48	4
STR	8	192	7
SI_	8	192	7	96	48	3
TAP	9	0	2
TAP	9	0	4
TAP	9	72	3
TAP	9	72	6
STR	9	144	0
SCL	9	144	0	96	48	5
TAP	9	144	5
TAP	9	240	0
TAP	9	264	1
TAP	9	288	2
STR	10	0	1
SI_	10	0	1	96	48	4
TAP	10	96	5
STR	10	144	6
SI_	10	144	6	96	48	3
TAP	10	240	2
TAP	10	288	1
STR	10	336	0
SI_	10	336	0	96	48	3
STR	10	336	4
SI_	10	336	4	96	48	7
TAP	11	48	0
TAP	11	48	4
TAP	11	192	3
TAP	11	192	4
TAP	11	288	0
TAP	11	288	7
STR	12	0	6
SI_	12	0	6	96	48	3
TAP	12	96	2
STR	12	144	1
SI_	12	144	1	96	48	4
TAP	12	240	5
TAP	12	288	6
STR	12	336	3
SI_	12	336	3	96	48	0
STR	12	336	7
SI_	12	336	7	96	48	4
TAP	13	48	3
TAP	13	48	7
TAP	13	192	0
TAP	13	192	4
TAP	13	240	1
TAP	13	240	5
TAP	13	288	2
TAP	13	288	6
TAP	13	336	3
TAP	13	336	7
STR	14	0	4
SI_	14	0	4	96	48	1
STR	14	96	4
SI_	14	96	4	96	48	7
STR	14	192	0
SI_	14	192	0	96	48	3
STR	14	288	0
SI_	14	288	0	96	48	5
STR	15	0	0
SSL	15	0	0	96	144	4
TAP	15	288	0
TAP	15	288	4
STR	16	0	7
SI_	16	0	7	96	48	4
STR	16	96	7
SI_	16	96	7	96	48	2
STR	16	192	7
SI_	16	192	7	96	48	3
TAP	17	24	1
TAP	17	24	2
TAP	17	96	3
TAP	17	96	4
TAP	17	168	5
STR	17	168	6
SI_	17	168	6	96	48	2
BRK	17	288	0
STR	18	0	6
SCL	18	0	6	96	48	3
TAP	18	96	2
STR	18	144	1
SCR	18	144	1	96	48	4
TAP	18	240	5
TAP	18	288	6
STR	18	336	3
SCL	18	336	3	96	48	0
STR	18	336	7
SCL	18	336	7	96	48	4
TAP	19	48	3
TAP	19	48	7
TAP	19	192	0
TAP	19	192	7
TAP	19	288	3
TAP	19	288	4
STR	20	0	1
SCR	20	0	1	96	48	4
TAP	20	96	5
STR	20	144	6
SCL	20	144	6	96	48	3
TAP	20	240	2
TAP	20	288	1
STR	20	336	0
SCR	20	336	0	96	48	3
STR	20	336	4
SCR	20	336	4	96	48	7
TAP	21	48	0
TAP	21	48	4
TAP	21	192	3
TAP	21	192	7
TAP	21	240	2
TAP	21	240	6
TAP	21	288	1
TAP	21	288	5
TAP	21	336	0
TAP	21	336	4
STR	22	0	3
SCL	22	0	3	96	48	0
STR	22	96	5
SCR	22	96	5	96	48	0
STR	22	192	1
SCR	22	192	1	96	48	4
STR	22	288	7
SCL	22	288	7	96	48	4
STR	23	0	0
SCR	23	0	0	96	144	7
TAP	23	288	1
TAP	23	288	6
STR	24	0	0
SCR	24	0	0	96	48	3
STR	24	96	0
SCL	24	96	0	96	48	5
STR	24	192	0
SI_	24	192	0	96	48	4
STR	25	0	6
SCR	25	0	6	96	48	1
TAP	25	48	6
STR	25	96	3
SCR	25	96	3	96	48	6
TAP	25	144	3
STR	25	192	0
SCR	25	192	0	96	48	3
TAP	25	240	0
BRK	25	288	7
STR	26	0	1
SCR	26	0	1	96	96	5
STR	26	96	5
SCL	26	96	5	96	96	1
TAP	26	192	7
TAP	26	240	6
TAP	26	288	5
STR	26	336	4
SI_	26	336	4	96	48	1
STR	27	48	2
SI_	27	48	2	96	48	6
STR	27	144	7
SI_	27	144	7	96	48	3
TAP	27	240	0
TAP	27	288	0
STR	28	0	6
SCL	28	0	6	96	96	2
STR	28	96	2
SCR	28	96	2	96	96	6
TAP	28	192	0
TAP	28	240	1
TAP	28	288	2
STR	28	336	3
SI_	28	336	3	96	48	6
STR	29	48	5
SI_	29	48	5	96	48	1
STR	29	144	0
SI_	29	144	0	96	48	4
TAP	29	240	7
TAP	29	288	7
STR	30	0	0
SI_	30	0	0	96	48	5
TAP	30	0	7
TAP	30	96	0
STR	30	96	7
SI_	30	96	7	96	48	2
TAP	30	192	1
TAP	30	240	0
TAP	30	288	7
STR	30	336	6
SCR	30	336	6	96	48	1
STR	31	48	4
SCR	31	48	4	96	48	7
STR	31	144	2
SCR	31	144	2	96	48	5
TAP	31	240	0
TAP	31	288	0
STR	32	0	3
SCR	32	0	3	96	96	6
STR	32	96	6
SCR	32	96	6	96	96	1
STR	32	192	1
SCR	32	192	1	96	96	4
STR	32	288	4
SCR	32	288	4	96	144	3
TAP	33	144	7
TAP	33	192	0
TAP	33	192	5
TAP	33	264	2
TAP	33	264	6
HLD	33	336	4	624
TAP	34	0	3
TAP	34	96	5
TAP	34	192	2
TAP	34	288	6
TAP	35	0	1
TAP	35	96	7
TAP	35	192	0
TAP	35	288	3
TAP	35	288	7
TAP	36	0	0
TAP	36	48	1
TAP	36	96	2
TAP	36	144	3
TAP	36	192	4
TAP	36	240	5
TAP	36	288	6
TAP	36	336	7
TAP	37	0	0
TAP	37	24	7
TAP	37	48	1
TAP	37	72	6
TAP	37	96	2
TAP	37	120	5
TAP	37	144	3
TAP	37	168	4
TAP	37	192	3
TAP	37	204	2
TAP	37	216	1
TAP	37	228	0
TAP	37	240	7
TAP	37	252	6
TAP	37	264	5
TAP	37	276	4
BRK	37	288	3
HLD	38	0	6	72
HLD	38	72	4	72
TAP	38	144	5
TAP	38	192	3
STR	38	192	6
SUL	38	192	6	96	96	3
HLD	39	0	1	72
HLD	39	72	3	72
TAP	39	144	2
STR	39	192	1
SUR	39	192	1	96	96	4
TAP	39	192	4
HLD	40	0	6	72
HLD	40	72	2	72
TAP	40	144	4
STR	40	192	0
SI_	40	192	0	96	48	4
TAP	41	0	3
TAP	41	0	5
TAP	41	72	1
TAP	41	72	4
TAP	41	144	2
STR	41	144	7
SCR	41	144	7	96	48	2
TAP	41	240	7
TAP	41	264	6
TAP	41	288	5
HLD	42	0	4	48
HLD	42	48	3	48
HLD	42	96	2	48
HLD	42	144	1	96
STR	42	240	0
SCR	42	240	0	96	48	4
STR	42	336	0
SCL	42	336	0	96	48	4
STR	43	48	0
SI_	43	48	0	96	48	4
TAP	43	144	0
TAP	43	240	0
TAP	43	240	4
TAP	43	288	3
TAP	43	288	7
HLD	44	0	3	48
HLD	44	48	4	48
HLD	44	96	5	48
HLD	44	144	6	96
STR	44	240	7
SCL	44	240	7	96	48	3
STR	44	336	7
SCR	44	336	7	96	48	3
STR	45	48	7
SI_	45	48	7	96	48	3
TAP	45	144	7
TAP	45	240	3
TAP	45	240	7
TAP	45	288	0
TAP	45	288	4
TAP	46	0	1
TAP	46	0	6
TAP	46	96	3
TAP	46	144	4
STR	46	192	1
SI_	46	192	1	96	48	5
TAP	46	288	7
STR	46	336	6
SI_	46	336	6	96	48	2
TAP	47	48	0
HLD	47	192	3	96
HLD	47	192	4	96
TAP	47	336	0
TAP	47	336	7
HLD	48	48	6	72
HLD	48	120	4	72
HLD	48	192	2	72
HLD	48	264	0	72
STR	48	336	7
SI_	48	336	7	96	48	3
TAP	49	48	2
TAP	49	96	1
STR	49	144	0
SI_	49	144	0	96	48	4
TAP	49	240	6
BRK	49	288	7
STR	50	0	2
SCL	50	0	2	96	96	6
STR	50	96	6
SCR	50	96	6	96	96	2
TAP	50	192	4
TAP	50	240	5
TAP	50	288	6
STR	50	336	7
SCR	50	336	7	96	48	2
TAP	51	48	3
STR	51	48	7
SCL	51	48	7	96	48	4
TAP	51	144	3
STR	51	144	7
SI_	51	144	7	96	48	3
TAP	51	240	0
TAP	51	288	0
STR	52	0	5
SCR	52	0	5	96	96	1
STR	52	96	1
SCL	52	96	1	96	96	5
TAP	52	192	3
TAP	52	240	2
TAP	52	288	1
STR	52	336	0
SCL	52	336	0	96	48	5
STR	53	48	0
SCR	53	48	0	96	48	3
TAP	53	48	4
STR	53	144	0
SI_	53	144	0	96	48	4
TAP	53	144	4
TAP	53	240	7
TAP	53	288	7
TAP	54	0	0
STR	54	0	7
SI_	54	0	7	96	48	2
STR	54	96	0
SI_	54	96	0	96	48	5
TAP	54	96	7
TAP	54	192	6
TAP	54	240	7
TAP	54	288	0
STR	54	336	1
SCL	54	336	1	96	48	6
STR	55	48	3
SCL	55	48	3	96	48	0
STR	55	144	5
SCL	55	144	5	96	48	2
TAP	55	240	7
TAP	55	288	7
STR	56	0	4
SCL	56	0	4	96	96	1
STR	56	96	1
SCL	56	96	1	96	96	6
STR	56	192	6
SCL	56	192	6	96	96	3
STR	56	288	3
SCL	56	288	3	96	144	4
TAP	57	144	0
TAP	57	192	2
TAP	57	192	7
TAP	57	264	1
TAP	57	264	5
HLD	57	336	3	624
TAP	58	0	4
TAP	58	96	2
TAP	58	192	5
TAP	58	288	1
TAP	59	0	6
TAP	59	96	0
TAP	59	192	7
TAP	59	288	0
TAP	59	288	4
TAP	60	0	2
TAP	60	48	2
TAP	60	48	3
TAP	60	96	5
TAP	60	144	4
TAP	60	144	5
TAP	60	192	1
TAP	60	240	1
TAP	60	240	3
TAP	60	288	6
TAP	60	336	4
TAP	60	336	6
TAP	61	0	3
TAP	61	24	4
TAP	61	48	2
TAP	61	72	5
TAP	61	96	1
TAP	61	120	6
TAP	61	144	0
TAP	61	168	7
TAP	61	192	0
TAP	61	204	1
TAP	61	216	2
TAP	61	228	3
TAP	61	240	4
TAP	61	252	5
TAP	61	264	6
TAP	61	276	7
BRK	61	288	0

T_REC_TAP	237
T_REC_BRK	5
T_REC_XTP	0
T_REC_HLD	29
T_REC_XHO	0
T_REC_STR	99
T_REC_BST	0
T_REC_XST	0
T_REC_TTP	0
T_REC_THO	0
T_REC_SLD	99
T_REC_ALL	469
T_NUM_TAP	336
T_NUM_BRK	5
T_NUM_HLD	29
T_NUM_SLD	99
T_NUM_ALL	469
T_JUDGE_TAP	341
T_JUDGE_HLD	74
T_JUDGE_SLD	99
T_JUDGE_ALL	514
TTM_EACHPAIRS	68
TTM_SCR_TAP	168000
TTM_SCR_BRK	13000
TTM_SCR_HLD	29000
TTM_SCR_SLD	148500
TTM_SCR_ALL	358500
TTM_SCR_S	347300
TTM_SCR_SS	358000
TTM_RAT_ACV	10013

