VERSION	0.00.00	1.03.00
FES_MODE	0
BPM_DEF	136.700	136.700	136.700	136.700
MET_DEF	4	4
RESOLUTION	384
CLK_DEF	384
COMPATIBLE_CODE	MA2

BPM	0	0	136.700
MET	0	0	4	4

HLD	2	0	2	144
TAP	2	144	3
HLD	2	192	1	96
HLD	2	192	4	96
HLD	3	0	5	144
TAP	3	144	4
HLD	3	192	3	96
HLD	3	192	6	96
HLD	4	0	1	144
TAP	4	144	0
HLD	4	192	2	96
HLD	4	192	7	96
HLD	5	0	6	144
TAP	5	144	7
HLD	5	192	0	96
HLD	5	192	5	96
HLD	6	0	1	72
HLD	6	72	4	72
TAP	6	144	6
TAP	6	192	6
TAP	6	192	7
TAP	6	288	0
TAP	6	288	5
HLD	7	0	6	72
HLD	7	72	3	72
TAP	7	144	1
TAP	7	192	0
TAP	7	192	1
TAP	7	288	2
TAP	7	288	7
HLD	8	0	0	72
HLD	8	72	6	72
TAP	8	144	4
TAP	8	192	3
TAP	8	192	4
TAP	8	288	2
TAP	8	288	5
TAP	9	0	2
TAP	9	0	3
TAP	9	72	2
TAP	9	72	3
TAP	9	144	4
TAP	9	144	5
TAP	9	216	4
TAP	9	216	5
BRK	9	288	1
BRK	9	288	6
HLD	10	0	6	96
TAP	10	96	3
HLD	10	144	3	144
TAP	10	288	0
STR	10	336	0
SCL	10	336	0	96	96	4
HLD	11	48	1	144
TAP	11	288	2
TAP	11	288	6
HLD	12	0	1	96
TAP	12	96	4
HLD	12	144	4	144
TAP	12	288	7
STR	12	336	7
SI_	12	336	7	96	48	3
TAP	13	48	0
HLD	13	192	2	144
STR	13	336	3
SCL	13	336	3	96	288	4
HLD	15	96	0	192
STR	15	288	7
SCR	15	288	7	96	192	3
STR	15	336	7
SCL	15	336	7	96	144	4
TAP	17	24	3
TAP	17	24	4
TAP	17	96	3
TAP	17	96	4
TAP	17	168	2
TAP	17	168	5
BRK	17	288	0
HLD	18	0	1	96
TAP	18	96	4
HLD	18	144	4	144
TAP	18	288	7
STR	18	336	7
SCR	18	336	7	96	96	3
HLD	19	48	6	144
TAP	19	288	1
TAP	19	288	5
HLD	20	0	6	96
TAP	20	96	3
HLD	20	144	3	144
TAP	20	288	0
STR	20	336	0
SI_	20	336	0	96	48	4
TAP	21	48	7
HLD	21	192	5	144
STR	21	336	4
SCR	21	336	4	96	288	3
HLD	23	96	7	192
STR	23	288	0
SCL	23	288	0	96	192	4
STR	23	336	0
SCR	23	336	0	96	144	3
TAP	25	0	2
TAP	25	48	4
TAP	25	72	3
TAP	25	96	4
TAP	25	144	2
TAP	25	168	4
TAP	25	192	2
TAP	25	240	6
TAP	25	264	3
BRK	25	288	6
HLD	26	0	0	144
TAP	26	96	2
HLD	26	144	2	96
HLD	26	240	3	96
HLD	26	336	6	192
TAP	27	96	7
STR	27	144	7
SCR	27	144	7	96	48	3
HLD	28	0	7	144
TAP	28	96	5
HLD	28	144	5	96
HLD	28	240	4	96
HLD	28	336	1	192
TAP	29	96	0
STR	29	144	0
SCL	29	144	0	96	48	4
HLD	30	0	0	192
TAP	30	96	2
HLD	30	192	5	192
TAP	30	288	6
HLD	31	0	3	192
TAP	31	96	1
HLD	31	192	7	192
TAP	31	288	5
HLD	32	0	1	96
HLD	32	96	0	96
HLD	32	192	7	96
HLD	32	288	6	96
HLD	33	0	5	96
HLD	33	96	4	96
HLD	33	192	3	96
TAP	33	288	2
TAP	34	0	3
TAP	34	96	3
TAP	34	192	3
TAP	34	192	4
TAP	34	288	3
TAP	34	288	4
TAP	35	0	5
TAP	35	96	5
TAP	35	192	3
TAP	35	192	5
TAP	35	288	3
TAP	35	288	5
TAP	36	0	2
TAP	36	48	2
TAP	36	96	5
TAP	36	144	5
TAP	36	192	1
TAP	36	240	1
TAP	36	288	6
TAP	36	336	6
TAP	37	0	0
TAP	37	24	7
TAP	37	48	0
TAP	37	72	7
TAP	37	96	0
TAP	37	120	7
TAP	37	144	0
TAP	37	168	7
TAP	37	192	1
TAP	37	216	6
TAP	37	240	1
TAP	37	264	6
BRK	37	288	1
TAP	38	0	2
TAP	38	72	3
TAP	38	144	4
STR	38	192	0
SCR	38	192	0	96	48	3
TAP	38	192	5
TAP	39	0	5
TAP	39	72	4
TAP	39	144	3
TAP	39	192	1
TAP	39	192	5
TAP	39	288	3
TAP	39	288	7
TAP	40	0	2
TAP	40	72	1
TAP	40	144	0
TAP	40	192	2
STR	40	192	7
SCL	40	192	7	96	48	4
TAP	41	0	0
TAP	41	72	2
TAP	41	144	4
TAP	41	192	2
TAP	41	192	6
TAP	41	288	0
TAP	41	288	4
TAP	42	0	0
HLD	42	48	0	96
STR	42	144	2
SI_	42	144	2	96	48	7
TAP	42	240	3
TAP	42	288	3
TAP	43	0	5
HLD	43	48	5	96
STR	43	144	7
SI_	43	144	7	96	48	3
TAP	43	240	0
TAP	43	288	0
TAP	44	0	7
HLD	44	48	7	96
STR	44	144	5
SI_	44	144	5	96	48	0
TAP	44	240	4
TAP	44	288	4
TAP	45	0	2
HLD	45	48	2	96
STR	45	144	0
SI_	45	144	0	96	48	4
TAP	45	240	7
TAP	45	288	7
HLD	46	0	5	96
TAP	46	48	4
TAP	46	96	3
HLD	46	192	1	96
TAP	46	240	3
TAP	46	288	4
HLD	47	0	6	96
TAP	47	48	3
TAP	47	96	2
HLD	47	192	0	96
TAP	47	240	4
TAP	47	288	5
TAP	48	0	7
HLD	48	48	7	72
HLD	48	120	0	72
HLD	48	192	1	72
HLD	48	264	2	72
HLD	48	336	3	72
HLD	49	24	4	72
TAP	49	96	5
TAP	49	192	3
TAP	49	240	4
BRK	49	288	2
BRK	49	288	5
TAP	50	0	2
TAP	50	48	3
TAP	50	96	2
TAP	50	144	1
TAP	50	144	4
TAP	50	240	2
TAP	50	240	6
TAP	50	336	0
TAP	50	336	5
TAP	51	0	6
TAP	51	48	7
TAP	51	96	5
STR	51	144	0
SCR	51	144	0	96	48	3
TAP	51	240	7
TAP	51	288	7
TAP	52	0	5
TAP	52	48	4
TAP	52	96	5
TAP	52	144	3
TAP	52	144	6
TAP	52	240	1
TAP	52	240	5
TAP	52	336	2
TAP	52	336	7
TAP	53	0	1
TAP	53	48	0
TAP	53	96	2
STR	53	144	7
SCL	53	144	7	96	48	4
TAP	53	240	0
TAP	53	288	0
STR	54	0	0
SI_	54	0	0	96	48	4
TAP	54	48	6
TAP	54	96	6
STR	54	192	5
SI_	54	192	5	96	48	1
TAP	54	240	3
TAP	54	288	3
STR	55	0	2
SI_	55	0	2	96	48	6
TAP	55	48	5
TAP	55	96	5
STR	55	192	7
SI_	55	192	7	96	48	3
TAP	55	240	1
TAP	55	288	1
HLD	56	0	2	96
HLD	56	96	0	96
HLD	56	192	6	96
HLD	56	288	5	96
HLD	57	0	3	96
HLD	57	96	1	96
TAP	57	192	7
TAP	57	288	4
TAP	57	288	5
TAP	58	0	2
TAP	58	0	3
TAP	58	96	2
TAP	58	96	3
TAP	58	192	3
TAP	58	192	5
TAP	58	288	3
TAP	58	288	5
TAP	59	0	1
TAP	59	0	4
TAP	59	96	1
TAP	59	96	4
TAP	59	192	3
TAP	59	192	7
TAP	59	288	3
TAP	59	288	7
TAP	60	0	0
TAP	60	0	5
TAP	60	48	0
TAP	60	48	5
TAP	60	96	0
TAP	60	96	5
TAP	60	144	0
TAP	60	144	5
TAP	60	192	2
TAP	60	192	6
TAP	60	240	2
TAP	60	240	6
TAP	60	288	2
TAP	60	288	6
TAP	60	336	2
TAP	60	336	6
TAP	61	0	0
TAP	61	24	7
TAP	61	48	0
TAP	61	72	7
TAP	61	96	1
TAP	61	120	6
TAP	61	144	1
TAP	61	168	6
TAP	61	192	2
TAP	61	216	5
TAP	61	240	2
TAP	61	264	5
BRK	61	288	3

T_REC_TAP	226
T_REC_BRK	8
T_REC_XTP	0
T_REC_HLD	71
T_REC_XHO	0
T_REC_STR	24
T_REC_BST	0
T_REC_XST	0
T_REC_TTP	0
T_REC_THO	0
T_REC_SLD	24
T_REC_ALL	353
T_NUM_TAP	250
T_NUM_BRK	8
T_NUM_HLD	71
T_NUM_SLD	24
T_NUM_ALL	353
T_JUDGE_TAP	258
T_JUDGE_HLD	172
T_JUDGE_SLD	24
T_JUDGE_ALL	454
TTM_EACHPAIRS	54
TTM_SCR_TAP	125000
TTM_SCR_BRK	20800
TTM_SCR_HLD	71000
TTM_SCR_SLD	36000
TTM_SCR_ALL	252800
TTM_SCR_S	244450
TTM_SCR_SS	252000
TTM_RAT_ACV	10031

