VERSION	0.00.00	1.03.00
FES_MODE	0
BPM_DEF	136.700	136.700	136.700	136.700
MET_DEF	4	4
RESOLUTION	384
CLK_DEF	384
COMPATIBLE_CODE	MA2

BPM	0	0	136.700
MET	0	0	4	4

TAP	2	0	2
TAP	2	96	4
HLD	2	192	3	192
TAP	3	0	5
TAP	3	96	3
HLD	3	192	4	192
TAP	4	0	1
TAP	4	96	5
HLD	4	192	3	192
TAP	5	0	6
TAP	5	96	2
TAP	5	192	4
TAP	5	288	3
TAP	5	288	5
TAP	6	0	1
TAP	6	96	7
HLD	6	192	0	192
TAP	7	0	6
TAP	7	96	0
HLD	7	192	7	192
TAP	8	0	2
TAP	8	96	6
HLD	8	192	0	192
TAP	9	0	5
TAP	9	96	1
STR	9	192	7
SI_	9	192	7	96	48	3
TAP	10	0	2
TAP	10	96	1
TAP	10	96	3
TAP	10	144	1
TAP	10	144	3
TAP	10	288	2
TAP	10	288	4
TAP	10	336	2
TAP	10	336	4
TAP	11	96	3
TAP	11	96	5
TAP	11	144	3
TAP	11	144	5
TAP	11	288	1
TAP	11	288	6
TAP	12	0	7
TAP	12	96	0
TAP	12	96	6
TAP	12	144	0
TAP	12	144	6
TAP	12	288	1
TAP	12	288	7
TAP	12	336	1
TAP	12	336	7
TAP	13	96	0
STR	13	192	0
SI_	13	192	0	96	48	4
TAP	14	0	5
TAP	14	96	4
TAP	14	96	6
TAP	14	144	4
TAP	14	144	6
TAP	14	288	3
TAP	14	288	5
TAP	14	336	3
TAP	14	336	5
TAP	15	96	2
TAP	15	96	4
TAP	15	144	2
TAP	15	144	4
TAP	15	288	1
TAP	15	288	6
TAP	16	0	0
TAP	16	96	1
TAP	16	96	7
TAP	16	144	1
TAP	16	144	7
STR	16	288	6
SUL	16	288	6	96	192	1
BRK	17	288	0
BRK	17	288	7
TAP	18	0	1
TAP	18	96	2
HLD	18	144	2	144
TAP	18	288	4
HLD	18	336	4	144
TAP	19	96	3
HLD	19	144	3	144
TAP	19	288	5
TAP	20	0	6
TAP	20	0	7
TAP	20	96	5
HLD	20	144	5	144
TAP	20	288	3
HLD	20	336	3	144
TAP	21	96	4
HLD	21	144	4	144
TAP	21	288	2
TAP	22	0	0
TAP	22	0	1
TAP	22	96	7
HLD	22	144	7	144
TAP	22	288	0
HLD	22	336	0	144
TAP	23	96	6
HLD	23	144	6	144
TAP	23	288	7
TAP	24	0	2
TAP	24	0	5
TAP	24	96	1
HLD	24	144	1	144
TAP	24	288	0
TAP	25	0	2
TAP	25	0	3
TAP	25	96	4
TAP	25	96	5
TAP	25	192	3
TAP	25	192	4
BRK	25	288	1
BRK	25	288	6
TAP	26	0	0
TAP	26	0	7
TAP	26	96	0
TAP	26	96	1
TAP	26	192	2
TAP	26	240	3
TAP	26	288	2
TAP	27	0	3
TAP	27	0	4
TAP	27	96	4
TAP	27	96	5
TAP	27	192	6
TAP	27	240	7
TAP	27	288	6
TAP	28	0	0
TAP	28	0	7
TAP	28	96	6
TAP	28	96	7
TAP	28	192	5
TAP	28	240	4
TAP	28	288	5
TAP	29	0	3
TAP	29	0	4
TAP	29	96	2
TAP	29	96	3
TAP	29	192	1
TAP	29	240	0
TAP	29	288	1
TAP	30	0	2
TAP	30	0	3
TAP	30	96	4
TAP	30	96	5
TAP	30	192	6
TAP	30	240	7
TAP	30	288	6
TAP	31	0	4
TAP	31	0	5
TAP	31	96	2
TAP	31	96	3
TAP	31	192	1
TAP	31	240	0
TAP	31	288	1
TAP	32	0	2
TAP	32	0	3
TAP	32	96	4
TAP	32	96	5
TAP	32	192	7
TAP	32	240	0
TAP	32	288	7
TAP	33	0	1
TAP	33	0	6
TAP	33	96	2
TAP	33	96	5
TAP	33	192	3
TAP	33	240	4
TAP	33	288	3
TAP	33	336	4
TAP	34	0	3
TAP	34	96	3
TAP	34	192	3
TAP	34	288	3
TAP	35	0	5
TAP	35	96	4
TAP	35	96	5
TAP	35	192	2
TAP	35	288	2
TAP	35	288	3
TAP	36	0	0
TAP	36	0	1
TAP	36	96	6
TAP	36	96	7
TAP	36	192	0
TAP	36	192	1
TAP	36	288	6
TAP	36	288	7
TAP	37	0	0
TAP	37	48	7
TAP	37	96	0
TAP	37	144	7
TAP	37	192	0
TAP	37	240	7
TAP	37	288	0
STR	38	0	6
SUL	38	0	6	96	192	1
STR	39	0	2
SUL	39	0	2	96	192	5
STR	40	0	7
SUR	40	0	7	96	192	4
STR	41	0	0
SUL	41	0	0	96	192	3
HLD	42	0	2	192
TAP	42	144	3
TAP	42	192	3
HLD	43	0	5	192
TAP	43	144	4
TAP	43	192	4
HLD	44	0	1	192
TAP	44	144	0
TAP	44	192	0
HLD	45	0	6	192
TAP	45	144	7
TAP	45	192	7
HLD	46	0	2	192
TAP	46	144	3
TAP	46	192	3
TAP	46	288	1
TAP	46	288	4
HLD	47	0	5	192
TAP	47	144	4
TAP	47	192	4
TAP	47	288	3
TAP	47	288	6
HLD	48	0	1	192
TAP	48	144	0
TAP	48	192	0
TAP	48	288	2
TAP	48	288	7
HLD	49	0	6	192
TAP	49	144	7
TAP	49	192	7
TAP	49	288	0
TAP	49	288	5
TAP	50	0	4
TAP	50	96	3
TAP	50	96	5
TAP	50	192	2
TAP	50	240	3
TAP	50	288	2
TAP	51	0	0
TAP	51	96	1
TAP	51	96	7
TAP	51	192	6
TAP	51	240	7
TAP	51	288	6
TAP	52	0	3
TAP	52	96	2
TAP	52	96	4
TAP	52	192	5
TAP	52	240	4
TAP	52	288	5
TAP	53	0	7
TAP	53	96	0
TAP	53	96	6
TAP	53	192	1
TAP	53	240	0
TAP	53	288	1
TAP	54	0	2
TAP	54	0	3
TAP	54	96	1
TAP	54	96	4
TAP	54	192	0
TAP	54	240	7
TAP	54	288	0
TAP	55	0	4
TAP	55	0	5
TAP	55	96	3
TAP	55	96	6
TAP	55	192	7
TAP	55	240	0
TAP	55	288	7
TAP	56	0	3
TAP	56	0	4
TAP	56	96	1
TAP	56	96	6
TAP	56	192	0
TAP	56	240	7
TAP	56	288	0
TAP	57	0	1
TAP	57	0	6
TAP	57	96	2
TAP	57	96	5
TAP	57	192	4
TAP	57	240	3
TAP	57	288	4
TAP	57	336	3
TAP	58	0	4
TAP	58	96	2
TAP	58	192	6
TAP	58	288	0
TAP	59	0	6
TAP	59	96	6
TAP	59	96	7
TAP	59	192	1
TAP	59	288	0
TAP	59	288	1
TAP	60	0	2
TAP	60	0	3
TAP	60	96	1
TAP	60	96	7
TAP	60	192	4
TAP	60	192	5
TAP	60	288	0
TAP	60	288	6
TAP	61	0	7
TAP	61	48	0
TAP	61	96	7
TAP	61	144	0
STR	61	192	7
SI_	61	192	7	96	48	3

T_REC_TAP	272
T_REC_BRK	4
T_REC_XTP	0
T_REC_HLD	24
T_REC_XHO	0
T_REC_STR	8
T_REC_BST	0
T_REC_XST	0
T_REC_TTP	0
T_REC_THO	0
T_REC_SLD	8
T_REC_ALL	316
T_NUM_TAP	280
T_NUM_BRK	4
T_NUM_HLD	24
T_NUM_SLD	8
T_NUM_ALL	316
T_JUDGE_TAP	284
T_JUDGE_HLD	86
T_JUDGE_SLD	8
T_JUDGE_ALL	378
TTM_EACHPAIRS	73
TTM_SCR_TAP	140000
TTM_SCR_BRK	10400
TTM_SCR_HLD	24000
TTM_SCR_SLD	12000
TTM_SCR_ALL	186400
TTM_SCR_S	180450
TTM_SCR_SS	186000
TTM_RAT_ACV	10021

