VERSION	0.00.00	1.03.00
FES_MODE	0
BPM_DEF	136.700	136.700	136.700	136.700
MET_DEF	4	4
RESOLUTION	384
CLK_DEF	384
COMPATIBLE_CODE	MA2

BPM	0	0	136.700
MET	0	0	4	4

TAP	6	0	3
TAP	6	192	3
TAP	7	0	2
TAP	7	192	2
TAP	8	0	1
TAP	8	192	1
HLD	9	0	0	192
TAP	9	288	0
TAP	10	96	7
TAP	10	288	7
TAP	11	96	0
TAP	11	288	0
TAP	12	96	6
TAP	12	288	6
TAP	13	96	1
TAP	13	288	1
STR	14	0	1
SI_	14	0	1	96	240	6
TAP	15	288	5
STR	16	0	5
SI_	16	0	5	96	240	2
TAP	17	288	1
TAP	18	96	2
TAP	18	288	2
TAP	19	96	5
TAP	19	288	5
TAP	20	96	3
TAP	20	288	3
TAP	21	96	4
TAP	21	288	4
STR	22	0	4
SI_	22	0	4	96	240	7
TAP	23	288	0
STR	24	0	0
SI_	24	0	0	96	240	3
HLD	26	0	3	288
TAP	27	0	5
TAP	27	96	5
TAP	27	192	5
HLD	28	0	4	288
TAP	29	0	2
TAP	29	96	2
TAP	29	192	2
TAP	30	96	1
TAP	30	288	1
TAP	31	96	0
TAP	31	288	0
HLD	32	0	0	384
HLD	32	0	7	384
TAP	33	192	0
TAP	33	192	7
TAP	34	0	0
TAP	34	192	0
TAP	35	0	7
TAP	35	192	7
TAP	36	0	0
TAP	36	96	0
TAP	36	192	7
TAP	36	288	7
TAP	37	0	0
TAP	37	96	0
TAP	37	192	7
BRK	37	288	7
STR	38	0	0
SI_	38	0	0	96	288	4
STR	40	0	7
SI_	40	0	7	96	288	3
TAP	41	288	0
TAP	41	288	7
TAP	42	96	0
TAP	42	288	1
TAP	43	96	2
TAP	43	288	3
TAP	44	96	4
TAP	44	288	5
TAP	45	96	6
TAP	45	288	7
TAP	46	96	6
TAP	46	96	7
TAP	46	288	6
TAP	46	288	7
TAP	47	96	4
TAP	47	96	5
TAP	47	288	4
TAP	47	288	5
TAP	48	96	2
TAP	48	96	3
TAP	48	288	2
TAP	48	288	3
TAP	49	96	0
TAP	49	96	1
BRK	49	288	0
BRK	49	288	1
TAP	50	0	1
TAP	50	96	1
TAP	50	192	0
TAP	50	288	0
HLD	51	0	7	192
TAP	52	0	6
TAP	52	96	6
TAP	52	192	7
TAP	52	288	7
HLD	53	0	0	192
TAP	54	96	1
TAP	54	288	2
TAP	55	96	3
TAP	55	288	4
HLD	56	0	3	384
HLD	56	0	4	384
TAP	57	192	3
TAP	57	192	4
TAP	58	0	3
TAP	58	192	3
TAP	59	0	4
TAP	59	192	4
TAP	60	0	3
TAP	60	96	3
TAP	60	192	4
TAP	60	288	4
TAP	61	0	3
TAP	61	96	4
TAP	61	192	3
TAP	61	288	2
TAP	61	288	5

T_REC_TAP	100
T_REC_BRK	3
T_REC_XTP	0
T_REC_HLD	9
T_REC_XHO	0
T_REC_STR	6
T_REC_BST	0
T_REC_XST	0
T_REC_TTP	0
T_REC_THO	0
T_REC_SLD	6
T_REC_ALL	124
T_NUM_TAP	106
T_NUM_BRK	3
T_NUM_HLD	9
T_NUM_SLD	6
T_NUM_ALL	124
T_JUDGE_TAP	109
T_JUDGE_HLD	56
T_JUDGE_SLD	6
T_JUDGE_ALL	171
TTM_EACHPAIRS	14
TTM_SCR_TAP	53000
TTM_SCR_BRK	7800
TTM_SCR_HLD	9000
TTM_SCR_SLD	9000
TTM_SCR_ALL	78800
TTM_SCR_S	76150
TTM_SCR_SS	78500
TTM_RAT_ACV	10038

