VERSION	0.00.00	1.03.00
FES_MODE	0
BPM_DEF	256.000	256.000	256.000	256.000
MET_DEF	4	4
RESOLUTION	384
CLK_DEF	384
COMPATIBLE_CODE	MA2

BPM	0	0	256.000
MET	0	0	4	4

TAP	2	0	1
STR	2	0	6
SUL	2	0	6	96	288	4
TAP	4	0	1
STR	4	0	6
SUL	4	0	6	96	288	4
TAP	5	192	0
TAP	5	240	7
TAP	5	288	0
TAP	5	336	7
TAP	6	0	1
STR	6	0	6
SUL	6	0	6	96	288	4
TAP	7	192	3
TAP	7	240	4
TAP	7	288	2
TAP	7	336	5
TAP	8	0	1
STR	8	0	6
SUL	8	0	6	96	288	4
TAP	9	192	4
STR	9	288	3
SXR	9	288	3	96	384	0
TAP	10	0	3
TAP	10	0	4
TAP	10	96	4
TAP	10	192	4
TAP	10	288	4
TAP	11	0	4
TAP	11	96	4
TAP	11	192	4
STR	11	288	4
SXL	11	288	4	96	384	7
TAP	12	0	3
TAP	12	0	4
TAP	12	96	3
TAP	12	192	3
TAP	12	288	3
TAP	13	0	3
TAP	13	96	3
TAP	13	192	3
STR	13	288	3
SUL	13	288	3	96	288	0
TAP	14	0	3
TAP	14	0	4
TAP	14	96	4
TAP	14	192	4
STR	14	288	4
SUR	14	288	4	96	288	7
TAP	15	0	3
TAP	15	0	4
TAP	15	96	3
TAP	15	192	3
STR	15	288	3
SI_	15	288	3	96	96	0
TAP	16	0	3
TAP	16	0	4
STR	16	96	4
SI_	16	96	4	96	96	7
TAP	16	192	3
TAP	16	192	4
TAP	16	288	3
STR	17	0	1
SI_	17	0	1	96	48	4
TAP	17	0	4
TAP	17	96	1
STR	17	96	6
SI_	17	96	6	96	48	2
STR	17	192	0
SF_	17	192	0	96	48	4
TAP	17	192	6
TAP	17	288	0
STR	18	0	7
SI_	18	0	7	96	96	1
STR	18	96	1
SI_	18	96	1	96	96	6
STR	18	192	6
SI_	18	192	6	96	96	2
STR	18	288	2
SI_	18	288	2	96	96	5
STR	19	0	5
SLL	19	0	5	96	96	7
HLD	19	96	3	48
TAP	19	288	0
TAP	19	288	6
TAP	20	0	1
TAP	20	48	3
TAP	20	96	2
TAP	20	144	2
TAP	20	192	6
TAP	20	240	4
TAP	20	288	5
TAP	20	336	5
TAP	21	0	0
TAP	21	0	4
TAP	21	48	2
TAP	21	72	3
TAP	21	96	2
TAP	21	144	6
TAP	21	192	6
TAP	21	288	0
TAP	21	288	4
STR	22	0	0
SI_	22	0	0	96	96	6
STR	22	96	6
SI_	22	96	6	96	96	1
STR	22	192	1
SI_	22	192	1	96	96	5
STR	22	288	5
SI_	22	288	5	96	96	2
STR	23	0	2
SLR	23	0	2	96	96	0
HLD	23	96	4	48
TAP	23	288	1
TAP	23	288	7
TAP	24	0	0
TAP	24	48	0
TAP	24	96	4
TAP	24	144	4
TAP	24	192	2
TAP	24	240	2
TAP	24	288	6
TAP	24	336	6
TAP	25	0	3
TAP	25	0	7
TAP	25	96	1
TAP	25	96	5
HLD	25	144	1	96
HLD	25	144	5	96
BRK	25	288	3
BRK	25	288	7
HLD	26	0	1	96
HLD	26	0	5	96
HLD	26	144	2	96
HLD	26	144	6	96
HLD	26	288	3	48
HLD	26	288	7	48
TAP	27	0	3
TAP	27	0	7
STR	27	96	0
SCL	27	96	0	96	48	5
STR	27	96	4
SCL	27	96	4	96	48	1
TAP	27	144	0
TAP	27	144	4
TAP	27	192	0
TAP	27	192	4
TAP	28	0	6
TAP	28	48	4
TAP	28	96	5
TAP	28	144	5
TAP	28	192	1
TAP	28	240	3
TAP	28	288	2
TAP	28	336	2
TAP	29	0	3
TAP	29	0	7
TAP	29	48	5
TAP	29	72	4
TAP	29	96	5
TAP	29	144	1
TAP	29	192	1
TAP	29	288	3
TAP	29	288	7
STR	30	0	7
SI_	30	0	7	96	96	1
STR	30	96	1
SI_	30	96	1	96	96	6
STR	30	192	6
SI_	30	192	6	96	96	2
STR	30	288	2
SI_	30	288	2	96	96	5
STR	31	0	5
SLL	31	0	5	96	96	7
HLD	31	96	3	48
TAP	31	288	0
TAP	31	288	6
TAP	32	0	1
TAP	32	48	6
TAP	32	96	6
TAP	32	144	6
TAP	32	192	6
TAP	32	192	7
TAP	32	240	6
TAP	32	240	7
TAP	32	288	6
TAP	32	288	7
TAP	32	336	6
TAP	32	336	7
HLD	33	0	0	0
HLD	33	48	1	0
HLD	33	96	2	0
HLD	33	144	3	0
HLD	33	192	4	0
HLD	33	240	5	0
HLD	33	288	6	0
HLD	33	336	7	0
TAP	34	0	1
TAP	34	0	5
TAP	34	96	3
TAP	34	96	7
TAP	34	192	0
TAP	34	192	4
TAP	34	288	3
STR	34	288	7
SI_	34	288	7	96	48	3
STR	35	0	0
SCR	35	0	0	96	96	4
TAP	35	96	4
TAP	35	120	5
TAP	35	144	6
TAP	35	168	7
TAP	35	192	0
TAP	35	288	0
TAP	35	288	4
TAP	35	336	3
TAP	35	336	7
TAP	36	0	2
TAP	36	0	6
TAP	36	96	0
TAP	36	96	4
TAP	36	192	3
TAP	36	192	7
STR	36	288	0
SI_	36	288	0	96	48	4
TAP	36	288	4
STR	37	0	7
SCL	37	0	7	96	96	3
TAP	37	96	3
TAP	37	120	2
TAP	37	144	1
TAP	37	168	0
TAP	37	192	7
TAP	37	288	3
TAP	37	288	7
TAP	37	336	0
TAP	37	336	4
TAP	38	0	1
TAP	38	0	5
TAP	38	96	3
TAP	38	96	7
TAP	38	192	0
TAP	38	192	4
TAP	38	288	3
STR	38	288	7
SI_	38	288	7	96	48	3
STR	39	0	0
SCR	39	0	0	96	96	4
TAP	39	96	4
TAP	39	120	5
TAP	39	144	6
TAP	39	168	7
TAP	39	192	0
TAP	39	288	0
TAP	39	288	4
TAP	40	0	3
TAP	40	0	7
TAP	40	48	3
TAP	40	96	3
TAP	40	96	5
TAP	40	144	5
TAP	40	192	1
TAP	40	192	5
TAP	40	240	1
TAP	40	288	1
TAP	40	288	7
TAP	40	336	7
HLD	41	0	0	336
TAP	41	0	7
TAP	41	48	7
TAP	41	96	7
TAP	41	144	7
TAP	41	192	7
TAP	41	240	7
TAP	41	288	7
TAP	41	336	7
TAP	42	0	2
TAP	42	0	6
TAP	42	96	1
TAP	42	96	4
TAP	42	192	3
TAP	42	192	7
STR	42	288	0
SI_	42	288	0	96	48	4
TAP	42	288	4
TAP	43	0	0
STR	43	0	7
SCL	43	0	7	96	96	3
TAP	43	96	3
TAP	43	96	7
TAP	43	120	2
TAP	43	144	1
TAP	43	168	0
TAP	43	192	7
TAP	43	288	3
TAP	43	288	7
TAP	43	336	0
TAP	43	336	4
TAP	44	0	1
TAP	44	0	5
TAP	44	96	3
TAP	44	96	6
TAP	44	192	0
TAP	44	192	4
TAP	44	288	3
STR	44	288	7
SI_	44	288	7	96	48	3
STR	45	0	0
SCR	45	0	0	96	96	4
TAP	45	0	7
TAP	45	96	0
TAP	45	96	4
TAP	45	120	5
TAP	45	144	6
TAP	45	168	7
TAP	45	192	0
TAP	45	288	0
TAP	45	288	4
TAP	45	336	3
TAP	45	336	7
STR	46	0	2
SI_	46	0	2	96	48	7
TAP	46	0	6
STR	46	96	7
SI_	46	96	7	96	48	3
STR	46	192	3
SI_	46	192	3	96	48	6
STR	46	288	6
SI_	46	288	6	96	48	4
STR	47	0	4
SI_	47	0	4	96	48	0
STR	47	96	0
SI_	47	96	0	96	48	5
STR	47	192	5
SI_	47	192	5	96	48	1
TAP	47	288	7
HLD	48	0	0	96
HLD	48	0	4	96
TAP	48	144	1
TAP	48	144	5
TAP	48	240	2
TAP	48	240	6
HLD	48	336	3	144
HLD	48	336	7	144
TAP	49	192	1
TAP	49	192	3
TAP	49	288	4
TAP	49	288	6
BRK	50	0	0
HLD	50	0	7	624
TAP	50	144	1
TAP	50	288	2
TAP	51	48	3
TAP	51	96	3
TAP	51	192	4
TAP	51	240	4
TAP	52	0	5
TAP	52	48	4
TAP	52	96	5
TAP	52	144	4
TAP	52	288	2
TAP	52	336	2
TAP	53	0	4
TAP	53	48	3
TAP	53	96	4
TAP	53	144	3
TAP	53	192	4
TAP	53	288	2
TAP	53	288	3
TAP	54	0	4
TAP	54	0	5
TAP	54	96	2
TAP	54	120	3
TAP	54	144	2
TAP	54	168	3
TAP	54	192	2
TAP	54	288	5
TAP	54	312	4
TAP	54	336	5
TAP	54	360	4
TAP	55	0	5
TAP	55	96	1
TAP	55	120	2
TAP	55	144	1
TAP	55	168	2
TAP	55	192	1
TAP	55	288	6
TAP	55	312	5
TAP	55	336	6
TAP	55	360	5
TAP	56	0	6
TAP	56	96	0
TAP	56	120	7
TAP	56	144	0
TAP	56	168	7
STR	56	192	0
SCR	56	192	0	96	384	7
BRK	58	0	0
BRK	58	0	4
TAP	59	0	5
TAP	59	0	7
TAP	59	144	0
TAP	59	144	1
TAP	59	288	5
TAP	59	288	6
TAP	60	0	0
TAP	60	0	2
TAP	61	0	0
TAP	61	0	2
TAP	61	144	6
TAP	61	144	7
TAP	61	288	1
TAP	61	288	2
TAP	62	0	4
TAP	62	0	6
TAP	62	192	0
TAP	62	192	2
TAP	62	288	3
TAP	62	320	3
TAP	62	352	3
TAP	63	0	3
TAP	63	192	5
TAP	63	192	7
TAP	63	288	4
TAP	63	320	4
TAP	63	352	4
TAP	64	0	4
TAP	64	96	1
TAP	64	96	2
TAP	64	192	3
TAP	64	192	4
TAP	64	288	5
TAP	64	288	6
STR	65	0	2
SLR	65	0	2	96	144	7
STR	65	0	5
SLL	65	0	5	96	144	0
STR	66	0	0
SI_	66	0	0	96	48	4
TAP	66	0	4
TAP	66	96	0
TAP	66	96	5
STR	66	144	6
SI_	66	144	6	96	48	3
TAP	66	240	2
TAP	66	240	6
STR	66	288	1
SI_	66	288	1	96	48	5
TAP	67	0	1
STR	67	0	7
SI_	67	0	7	96	48	3
STR	67	96	0
SI_	67	96	0	96	48	4
TAP	67	96	7
TAP	67	192	0
STR	67	192	6
SI_	67	192	6	96	48	2
TAP	67	288	1
TAP	67	288	6
TAP	68	0	3
STR	68	0	7
SI_	68	0	7	96	48	3
TAP	68	96	2
TAP	68	96	7
STR	68	144	1
SI_	68	144	1	96	48	4
TAP	68	240	1
TAP	68	240	5
STR	68	288	6
SI_	68	288	6	96	48	2
STR	69	0	0
SI_	69	0	0	96	48	4
TAP	69	0	6
TAP	69	96	0
STR	69	96	7
SI_	69	96	7	96	48	3
STR	69	192	1
SI_	69	192	1	96	48	5
TAP	69	192	7
TAP	69	288	1
TAP	69	288	6
STR	70	0	0
SI_	70	0	0	96	48	4
TAP	70	0	4
TAP	70	96	0
TAP	70	96	5
STR	70	144	6
SI_	70	144	6	96	48	3
TAP	70	240	2
TAP	70	240	6
STR	70	288	1
SI_	70	288	1	96	48	5
TAP	71	0	1
STR	71	0	7
SI_	71	0	7	96	48	3
STR	71	96	0
SI_	71	96	0	96	48	4
TAP	71	96	7
TAP	71	192	0
STR	71	192	6
SI_	71	192	6	96	48	2
TAP	71	288	1
TAP	71	288	6
TAP	72	0	3
STR	72	0	7
SI_	72	0	7	96	48	3
TAP	72	96	2
TAP	72	96	7
STR	72	144	1
SI_	72	144	1	96	48	4
TAP	72	240	1
TAP	72	240	5
TAP	72	288	6
BRK	73	0	3
BRK	73	0	7
STR	74	0	0
SI_	74	0	0	96	48	4
TAP	74	0	4
TAP	74	96	0
TAP	74	96	5
STR	74	144	6
SI_	74	144	6	96	48	3
TAP	74	240	2
TAP	74	240	6
STR	74	288	1
SI_	74	288	1	96	48	5
STR	75	0	7
SI_	75	0	7	96	48	3
TAP	75	48	7
STR	75	96	0
SI_	75	96	0	96	48	4
TAP	75	144	0
STR	75	192	6
SI_	75	192	6	96	48	2
TAP	75	240	6
TAP	75	288	1
TAP	76	0	3
STR	76	0	7
SI_	76	0	7	96	48	3
TAP	76	96	2
TAP	76	96	7
STR	76	144	1
SI_	76	144	1	96	48	4
TAP	76	240	1
TAP	76	240	5
STR	76	288	6
SI_	76	288	6	96	48	2
STR	77	0	0
SI_	77	0	0	96	48	4
TAP	77	48	0
STR	77	96	7
SI_	77	96	7	96	48	3
TAP	77	144	7
STR	77	192	1
SI_	77	192	1	96	48	5
TAP	77	240	1
TAP	77	288	6
TAP	78	0	3
STR	78	0	7
SI_	78	0	7	96	48	3
TAP	78	96	2
TAP	78	96	7
STR	78	144	1
SI_	78	144	1	96	48	4
TAP	78	240	1
TAP	78	240	5
STR	78	288	6
SI_	78	288	6	96	48	2
STR	79	0	0
SI_	79	0	0	96	48	4
TAP	79	48	0
STR	79	96	7
SI_	79	96	7	96	48	3
TAP	79	144	7
TAP	79	192	2
TAP	79	240	2
STR	79	288	2
SI_	79	288	2	96	48	5
STR	79	336	2
SI_	79	336	2	96	48	7
TAP	80	192	1
TAP	80	288	5
TAP	81	0	3
TAP	81	48	3
TAP	81	144	3
BRK	81	192	3
BRK	81	192	7
BRK	81	288	1
BRK	81	288	5
HLD	82	0	5	384
STR	82	0	6
SXR	82	0	6	96	288	3
TAP	83	192	7
TAP	83	240	0
TAP	83	288	7
TAP	83	336	0
STR	84	0	1
SUR	84	0	1	96	288	3
HLD	84	0	6	384
TAP	85	192	1
TAP	85	192	5
TAP	85	288	3
TAP	85	288	7
STR	86	0	1
SXL	86	0	1	96	288	4
HLD	86	0	2	384
TAP	87	192	4
TAP	87	240	3
TAP	87	288	5
TAP	87	336	2
HLD	88	0	1	384
STR	88	0	6
SUL	88	0	6	96	288	4
TAP	89	192	2
TAP	89	192	7
TAP	89	288	0
TAP	89	288	4
TAP	90	0	5
STR	90	0	6
SI_	90	0	6	96	96	1
TAP	90	96	5
TAP	90	192	4
TAP	90	240	3
TAP	90	288	4
TAP	90	336	3
HLD	91	0	4	96
TAP	91	96	2
TAP	91	144	2
TAP	91	192	3
TAP	91	288	2
TAP	91	288	3
STR	92	0	5
SI_	92	0	5	96	96	1
TAP	92	0	6
TAP	92	96	6
TAP	92	192	3
TAP	92	240	2
TAP	92	288	3
TAP	92	336	2
HLD	93	0	3	96
TAP	93	96	1
TAP	93	144	1
TAP	93	192	0
TAP	93	240	0
TAP	93	336	1
STR	94	0	1
SI_	94	0	1	96	96	6
TAP	94	0	2
TAP	94	96	2
TAP	94	192	4
TAP	94	240	3
TAP	94	288	4
TAP	94	336	3
HLD	95	0	4	96
TAP	95	96	3
TAP	95	144	3
TAP	95	192	4
TAP	95	288	5
TAP	95	336	0
HLD	95	336	7	96
TAP	96	48	0
TAP	96	96	1
TAP	96	144	2
TAP	96	192	3
TAP	96	216	2
TAP	96	240	1
TAP	96	264	0
TAP	96	288	7
TAP	96	312	6
TAP	96	336	5
TAP	96	360	4
TAP	97	0	3
TAP	97	0	7
TAP	97	96	2
TAP	97	96	6
BRK	97	192	1
BRK	97	192	5
STR	98	0	1
SI_	98	0	1	96	48	5
TAP	98	0	3
STR	98	96	0
SXR	98	96	0	96	144	4
TAP	98	96	1
TAP	98	192	4
TAP	98	240	3
TAP	98	288	2
TAP	98	336	1
STR	99	0	0
SUR	99	0	0	96	48	4
TAP	99	96	0
TAP	99	96	7
TAP	99	144	6
STR	99	192	5
SI_	99	192	5	96	48	2
TAP	99	288	0
TAP	99	288	5
STR	100	0	1
SXL	100	0	1	96	240	4
TAP	100	96	2
TAP	100	144	3
TAP	100	192	4
TAP	100	240	5
TAP	100	288	6
TAP	100	336	7
STR	101	0	0
SCL	101	0	0	96	48	5
TAP	101	96	3
TAP	101	144	2
STR	101	192	1
SI_	101	192	1	96	48	5
TAP	101	288	1
TAP	101	288	5
TAP	102	0	4
STR	102	0	6
SI_	102	0	6	96	48	2
TAP	102	96	6
STR	102	96	7
SXL	102	96	7	96	144	3
TAP	102	192	3
TAP	102	240	4
TAP	102	288	5
TAP	102	336	6
STR	103	0	7
SUL	103	0	7	96	48	3
TAP	103	96	0
TAP	103	96	7
TAP	103	144	1
TAP	103	192	2
TAP	103	288	3
TAP	103	288	4
BRK	103	336	1
BRK	103	336	6
TAP	104	48	2
TAP	104	96	3
TAP	104	144	4
TAP	104	192	5
TAP	104	240	4
TAP	104	288	3
TAP	104	336	2
STR	105	0	1
SLR	105	0	1	96	96	7
STR	105	0	6
SLL	105	0	6	96	96	0
BRK	105	288	1
BRK	105	288	6
TAP	106	0	4
STR	106	0	6
SI_	106	0	6	96	48	2
TAP	106	96	6
STR	106	96	7
SXL	106	96	7	96	144	3
TAP	106	192	3
TAP	106	240	4
TAP	106	288	5
TAP	106	336	6
STR	107	0	7
SUL	107	0	7	96	48	3
TAP	107	96	0
TAP	107	96	7
TAP	107	144	1
STR	107	192	2
SI_	107	192	2	96	48	5
TAP	107	288	2
TAP	107	288	7
STR	108	0	6
SXR	108	0	6	96	240	3
TAP	108	96	5
TAP	108	144	4
TAP	108	192	3
TAP	108	240	2
TAP	108	288	1
TAP	108	336	0
STR	109	0	7
SCR	109	0	7	96	48	2
TAP	109	96	4
TAP	109	144	5
TAP	109	192	6
STR	109	240	7
SI_	109	240	7	96	48	3
TAP	109	336	2
TAP	109	336	7
STR	110	0	1
SI_	110	0	1	96	48	5
STR	110	96	0
SXR	110	96	0	96	144	4
TAP	110	96	1
TAP	110	192	4
TAP	110	240	3
TAP	110	288	2
TAP	110	336	1
STR	111	0	0
SUR	111	0	0	96	48	4
TAP	111	96	0
TAP	111	96	7
TAP	111	144	6
TAP	111	192	5
TAP	111	288	3
TAP	111	288	4
BRK	111	336	1
BRK	111	336	6
TAP	112	48	0
TAP	112	96	0
TAP	112	144	0
TAP	112	192	0
TAP	112	240	0
TAP	112	288	0
TAP	112	336	0
BRK	113	0	0
TAP	113	12	7
TAP	113	24	6
TAP	113	36	5
TAP	113	48	4
TAP	113	60	3
TAP	113	72	2
TAP	113	84	1
BRK	113	96	0
TAP	113	108	7
TAP	113	120	6
TAP	113	132	5
TAP	113	144	4
TAP	113	156	3
TAP	113	168	2
TAP	113	180	1
BRK	113	192	0
BRK	113	192	4
STR	114	0	0
SI_	114	0	0	96	48	4
TAP	114	48	0
STR	114	96	6
SI_	114	96	6	96	48	2
TAP	114	144	6
STR	114	192	1
SI_	114	192	1	96	48	5
TAP	114	240	1
STR	114	288	7
SI_	114	288	7	96	48	3
TAP	114	336	7
STR	115	0	0
SI_	115	0	0	96	48	4
TAP	115	48	0
STR	115	96	6
SI_	115	96	6	96	48	2
TAP	115	144	6
TAP	115	192	0
TAP	115	240	0
TAP	115	288	0
BRK	115	288	4
STR	116	0	7
SI_	116	0	7	96	48	3
TAP	116	48	7
STR	116	96	1
SI_	116	96	1	96	48	5
TAP	116	144	1
STR	116	192	6
SI_	116	192	6	96	48	2
TAP	116	240	6
STR	116	288	0
SI_	116	288	0	96	48	4
TAP	116	336	0
STR	117	0	7
SI_	117	0	7	96	48	3
TAP	117	48	7
STR	117	96	1
SI_	117	96	1	96	48	5
TAP	117	144	1
TAP	117	192	7
TAP	117	240	7
BRK	117	288	3
TAP	117	288	7
STR	118	0	1
SI_	118	0	1	96	48	5
TAP	118	48	1
STR	118	96	6
SI_	118	96	6	96	48	0
TAP	118	144	6
STR	118	192	2
SI_	118	192	2	96	48	4
TAP	118	240	2
STR	118	288	5
SI_	118	288	5	96	48	1
TAP	118	336	5
STR	119	0	0
SI_	119	0	0	96	48	4
TAP	119	48	0
STR	119	96	6
SI_	119	96	6	96	48	2
TAP	119	144	6
TAP	119	192	7
TAP	119	240	7
BRK	119	288	3
TAP	119	288	7
STR	120	0	6
SI_	120	0	6	96	48	2
TAP	120	48	6
STR	120	96	1
SI_	120	96	1	96	48	7
TAP	120	144	1
STR	120	192	5
SI_	120	192	5	96	48	3
TAP	120	240	5
STR	120	288	2
SI_	120	288	2	96	48	6
TAP	120	336	2
STR	121	0	7
SI_	121	0	7	96	48	3
TAP	121	48	7
STR	121	96	1
SI_	121	96	1	96	48	5
TAP	121	144	1
TAP	121	192	0
TAP	121	240	0
TAP	121	288	0
BRK	121	288	4
STR	122	0	2
SCL	122	0	2	96	48	7
TAP	122	48	2
STR	122	96	6
SCL	122	96	6	96	48	3
TAP	122	144	6
STR	122	192	1
SV_	122	192	1	96	48	4
TAP	122	240	1
STR	122	288	5
SV_	122	288	5	96	48	0
TAP	122	336	5
STR	123	0	2
SI_	123	0	2	96	48	7
TAP	123	48	2
STR	123	96	6
SI_	123	96	6	96	48	3
TAP	123	144	6
HLD	123	192	2	96
TAP	123	288	1
TAP	123	312	0
TAP	123	336	7
TAP	123	360	6
STR	124	0	5
SCR	124	0	5	96	48	0
TAP	124	48	5
STR	124	96	1
SCR	124	96	1	96	48	4
TAP	124	144	1
STR	124	192	6
SV_	124	192	6	96	48	3
TAP	124	240	6
STR	124	288	2
SV_	124	288	2	96	48	7
TAP	124	336	2
STR	125	0	5
SI_	125	0	5	96	48	0
TAP	125	48	5
STR	125	96	1
SI_	125	96	1	96	48	4
TAP	125	144	1
HLD	125	192	5	96
TAP	125	288	6
TAP	125	312	7
TAP	125	336	0
TAP	125	360	1
TAP	126	0	2
TAP	126	0	6
TAP	126	48	2
TAP	126	48	6
TAP	126	96	1
TAP	126	96	5
TAP	126	144	1
TAP	126	144	5
TAP	126	192	0
TAP	126	192	4
TAP	126	240	0
TAP	126	240	4
TAP	126	288	3
TAP	126	288	7
TAP	126	336	3
TAP	126	336	7
TAP	127	0	2
TAP	127	0	6
TAP	127	24	7
TAP	127	48	0
TAP	127	72	1
TAP	127	96	2
TAP	127	120	1
TAP	127	144	0
TAP	127	168	7
TAP	127	192	0
TAP	127	204	1
TAP	127	216	2
TAP	127	228	3
TAP	127	240	4
TAP	127	252	5
TAP	127	264	6
TAP	127	276	7
TAP	127	288	0
TAP	127	300	1
TAP	127	312	2
TAP	127	324	3
TAP	127	336	4
TAP	127	348	5
TAP	127	360	6
TAP	127	372	7
TAP	128	48	7
TAP	128	96	6
TAP	128	144	5
TAP	128	192	0
TAP	128	240	1
TAP	128	288	2
TAP	128	336	3
TAP	129	0	4
BRK	130	0	0
BRK	130	0	7

T_REC_TAP	638
T_REC_BRK	29
T_REC_XTP	0
T_REC_HLD	35
T_REC_XHO	0
T_REC_STR	154
T_REC_BST	0
T_REC_XST	0
T_REC_TTP	0
T_REC_THO	0
T_REC_SLD	154
T_REC_ALL	1010
T_NUM_TAP	792
T_NUM_BRK	29
T_NUM_HLD	35
T_NUM_SLD	154
T_NUM_ALL	1010
T_JUDGE_TAP	821
T_JUDGE_HLD	58
T_JUDGE_SLD	154
T_JUDGE_ALL	1033
TTM_EACHPAIRS	186
TTM_SCR_TAP	396000
TTM_SCR_BRK	75400
TTM_SCR_HLD	35000
TTM_SCR_SLD	231000
TTM_SCR_ALL	737400
TTM_SCR_S	712500
TTM_SCR_SS	734500
TTM_RAT_ACV	10039

