VERSION	0.00.00	1.03.00
FES_MODE	0
BPM_DEF	256.000	256.000	256.000	256.000
MET_DEF	4	4
RESOLUTION	384
CLK_DEF	384
COMPATIBLE_CODE	MA2

BPM	0	0	256.000
MET	0	0	4	4

TAP	2	0	3
TAP	2	192	7
TAP	2	240	6
TAP	2	336	5
TAP	3	192	0
TAP	3	240	1
TAP	3	288	2
TAP	3	336	3
TAP	4	0	4
TAP	4	192	0
TAP	4	240	1
TAP	4	336	2
TAP	5	192	0
TAP	5	192	4
TAP	5	288	2
TAP	5	288	6
TAP	6	0	4
TAP	6	192	0
TAP	6	240	1
TAP	6	336	2
TAP	7	192	7
TAP	7	240	6
TAP	7	288	5
TAP	7	336	4
TAP	8	0	3
TAP	8	192	7
TAP	8	240	6
TAP	8	336	5
TAP	9	192	1
TAP	9	192	5
TAP	9	288	3
STR	9	288	7
SCL	9	288	7	96	336	4
TAP	10	0	0
TAP	10	192	1
TAP	10	240	1
HLD	10	336	2	240
TAP	11	192	1
TAP	11	240	0
STR	11	288	7
SCR	11	288	7	96	336	2
TAP	11	336	6
TAP	12	0	5
TAP	12	192	4
TAP	12	240	4
HLD	12	336	5	240
TAP	13	192	2
STR	13	288	0
SCR	13	288	0	96	336	3
TAP	13	288	4
TAP	14	0	7
TAP	14	192	6
TAP	14	240	6
HLD	14	336	5	240
TAP	15	192	6
TAP	15	240	7
STR	15	288	0
SCL	15	288	0	96	336	5
TAP	15	336	1
TAP	16	0	2
TAP	16	192	3
TAP	16	240	3
TAP	16	336	2
TAP	17	0	0
TAP	17	0	7
TAP	17	96	6
TAP	17	96	7
STR	17	192	0
SI_	17	192	0	96	48	4
STR	17	192	1
SI_	17	192	1	96	48	4
TAP	18	0	1
TAP	18	0	5
TAP	18	96	3
TAP	18	96	7
TAP	18	192	2
TAP	18	192	6
TAP	18	288	0
TAP	18	288	4
TAP	19	0	2
TAP	19	0	6
TAP	19	96	0
TAP	19	96	4
TAP	19	192	3
TAP	19	192	7
TAP	19	288	1
TAP	19	288	5
TAP	19	336	1
TAP	20	0	1
TAP	20	0	5
TAP	20	96	3
TAP	20	96	7
TAP	20	192	2
TAP	20	192	6
TAP	20	288	0
TAP	20	288	4
TAP	21	0	7
TAP	21	24	0
TAP	21	48	1
TAP	21	72	2
STR	21	96	3
SI_	21	96	3	96	48	7
TAP	21	192	0
TAP	22	0	2
TAP	22	0	6
TAP	22	96	0
TAP	22	96	4
TAP	22	192	1
TAP	22	192	5
TAP	22	288	3
TAP	22	288	7
TAP	23	0	0
TAP	23	24	7
TAP	23	48	6
TAP	23	72	5
STR	23	96	4
SI_	23	96	4	96	48	0
TAP	23	192	7
TAP	24	0	1
TAP	24	48	6
TAP	24	96	6
TAP	24	144	6
TAP	24	192	0
TAP	24	240	7
STR	24	288	7
SI_	24	288	7	96	48	3
TAP	24	336	7
STR	25	0	1
SI_	25	0	1	96	48	5
STR	25	96	6
SI_	25	96	6	96	48	3
TAP	25	192	2
BRK	25	288	0
TAP	26	0	5
TAP	26	144	2
TAP	26	192	6
TAP	26	288	0
TAP	26	288	7
TAP	27	0	3
TAP	27	0	5
TAP	27	96	2
TAP	27	96	6
STR	27	192	1
SCR	27	192	1	96	48	4
STR	27	192	7
SCL	27	192	7	96	48	4
TAP	28	0	1
TAP	28	0	5
TAP	28	96	3
TAP	28	96	7
TAP	28	192	2
TAP	28	192	6
TAP	28	288	0
TAP	28	288	4
TAP	29	0	3
TAP	29	24	4
TAP	29	48	5
TAP	29	72	6
STR	29	96	7
SI_	29	96	7	96	48	3
TAP	29	192	4
TAP	30	0	2
TAP	30	0	6
TAP	30	96	0
TAP	30	96	4
TAP	30	192	1
TAP	30	192	5
TAP	30	288	3
TAP	30	288	7
TAP	31	0	4
TAP	31	24	3
TAP	31	48	2
TAP	31	72	1
STR	31	96	0
SI_	31	96	0	96	48	4
TAP	31	192	3
TAP	32	0	1
TAP	32	48	6
TAP	32	96	6
TAP	32	144	6
TAP	32	192	1
TAP	32	240	6
TAP	32	288	6
TAP	32	336	6
TAP	33	0	4
TAP	33	48	5
TAP	33	96	6
TAP	33	144	7
TAP	33	192	3
TAP	33	240	2
TAP	33	288	1
TAP	33	336	0
TAP	34	0	1
TAP	34	0	5
TAP	34	96	3
TAP	34	96	7
TAP	34	192	0
TAP	34	192	4
TAP	34	288	3
STR	34	288	7
SI_	34	288	7	96	48	3
STR	35	0	1
SI_	35	0	1	96	48	4
STR	35	96	6
SI_	35	96	6	96	48	3
TAP	35	192	2
TAP	35	288	0
TAP	36	0	3
TAP	36	0	7
TAP	36	96	1
TAP	36	96	5
TAP	36	192	2
TAP	36	192	6
STR	36	288	0
SI_	36	288	0	96	48	4
TAP	36	288	4
STR	37	0	6
SI_	37	0	6	96	48	3
STR	37	96	1
SI_	37	96	1	96	48	4
TAP	37	192	5
TAP	37	288	7
TAP	38	0	1
TAP	38	0	5
TAP	38	96	3
TAP	38	96	7
TAP	38	192	0
TAP	38	192	4
TAP	38	288	3
STR	38	288	7
SI_	38	288	7	96	48	3
STR	39	0	1
SI_	39	0	1	96	48	4
STR	39	96	6
SI_	39	96	6	96	48	3
TAP	39	192	2
TAP	39	288	0
TAP	40	0	6
TAP	40	48	1
TAP	40	96	1
TAP	40	144	1
TAP	40	192	7
TAP	40	240	0
STR	40	288	0
SI_	40	288	0	96	48	4
TAP	40	336	0
STR	41	0	6
SI_	41	0	6	96	48	2
STR	41	96	1
SI_	41	96	1	96	48	5
TAP	41	192	4
BRK	41	288	7
TAP	42	0	1
TAP	42	0	5
TAP	42	96	3
TAP	42	96	7
TAP	42	192	0
TAP	42	192	4
TAP	42	288	3
STR	42	288	7
SI_	42	288	7	96	48	3
STR	43	0	1
SI_	43	0	1	96	48	4
TAP	43	0	7
TAP	43	96	1
STR	43	96	6
SI_	43	96	6	96	48	3
TAP	43	192	2
TAP	43	192	6
TAP	43	288	0
TAP	44	0	3
TAP	44	0	7
TAP	44	96	1
TAP	44	96	5
TAP	44	192	2
TAP	44	192	6
STR	44	288	0
SI_	44	288	0	96	48	4
TAP	44	288	4
TAP	45	0	0
STR	45	0	6
SI_	45	0	6	96	48	3
STR	45	96	1
SI_	45	96	1	96	48	4
TAP	45	96	6
TAP	45	192	1
TAP	45	192	5
TAP	45	288	6
TAP	46	0	7
TAP	46	48	0
TAP	46	96	7
TAP	46	192	1
TAP	46	240	0
TAP	46	288	1
TAP	47	0	6
TAP	47	48	7
TAP	47	96	6
STR	47	192	0
SI_	47	192	0	96	48	4
TAP	47	240	7
TAP	47	288	0
TAP	48	0	6
TAP	48	144	1
TAP	48	240	1
TAP	48	336	1
BRK	49	192	6
STR	50	0	1
SI_	50	0	1	96	288	5
TAP	50	144	3
TAP	50	288	2
TAP	51	96	3
TAP	51	192	4
TAP	51	288	5
STR	52	0	6
SI_	52	0	6	96	288	2
TAP	52	144	5
TAP	52	288	6
TAP	53	48	7
STR	53	96	7
SI_	53	96	7	96	48	4
TAP	53	144	7
STR	53	192	7
SI_	53	192	7	96	48	2
STR	54	0	6
SI_	54	0	6	96	288	2
TAP	54	144	4
TAP	54	288	5
TAP	55	96	4
TAP	55	192	3
TAP	55	288	2
STR	56	0	1
SI_	56	0	1	96	288	5
TAP	56	144	2
TAP	56	288	1
TAP	57	48	0
STR	57	96	0
SI_	57	96	0	96	48	3
TAP	57	144	0
STR	57	192	0
SI_	57	192	0	96	48	5
BRK	58	0	4
TAP	59	0	5
TAP	59	0	7
TAP	59	144	0
TAP	59	144	1
TAP	59	288	5
TAP	59	288	6
TAP	60	0	0
TAP	60	0	2
TAP	61	0	0
TAP	61	0	2
TAP	61	144	6
TAP	61	144	7
TAP	61	288	1
TAP	61	288	2
TAP	62	0	4
STR	62	192	0
SCR	62	192	0	96	96	3
TAP	62	192	7
TAP	62	288	3
TAP	62	312	4
TAP	62	336	5
TAP	62	360	6
TAP	63	0	7
STR	63	192	4
SCR	63	192	4	96	96	7
TAP	63	288	0
TAP	63	312	1
TAP	63	336	2
TAP	63	360	3
TAP	64	0	4
TAP	64	96	7
TAP	64	192	0
STR	64	288	7
SI_	64	288	7	96	96	4
STR	65	0	4
SI_	65	0	4	96	96	7
STR	65	96	7
SI_	65	96	7	96	96	2
STR	65	192	2
SI_	65	192	2	96	96	7
TAP	66	0	2
TAP	66	96	0
TAP	66	96	4
TAP	66	192	3
TAP	66	192	7
STR	66	288	1
SI_	66	288	1	96	48	5
TAP	66	288	5
STR	67	0	7
SI_	67	0	7	96	48	4
STR	67	96	0
SI_	67	96	0	96	48	3
TAP	67	192	3
TAP	67	288	1
TAP	68	0	0
TAP	68	0	4
TAP	68	96	2
TAP	68	96	6
TAP	68	192	3
TAP	68	192	7
STR	68	288	1
SI_	68	288	1	96	48	5
TAP	68	288	5
STR	69	0	7
SI_	69	0	7	96	48	3
STR	69	96	0
SI_	69	96	0	96	48	4
TAP	69	192	5
TAP	69	288	6
TAP	70	0	3
TAP	70	0	7
TAP	70	96	2
TAP	70	96	6
TAP	70	192	0
TAP	70	192	4
STR	70	288	1
SI_	70	288	1	96	48	4
TAP	70	288	5
STR	71	0	7
SI_	71	0	7	96	48	3
STR	71	96	0
SI_	71	96	0	96	48	4
TAP	71	192	3
TAP	71	288	1
TAP	72	0	0
TAP	72	0	4
TAP	72	96	2
TAP	72	96	6
TAP	72	192	3
TAP	72	192	7
TAP	72	288	1
TAP	72	288	5
BRK	73	0	7
TAP	74	0	0
TAP	74	0	4
TAP	74	96	2
TAP	74	96	6
TAP	74	192	1
TAP	74	192	5
TAP	74	288	3
STR	74	288	7
SI_	74	288	7	96	48	2
STR	75	0	0
SI_	75	0	0	96	48	5
STR	75	96	4
SI_	75	96	4	96	48	7
TAP	75	192	2
TAP	75	288	0
TAP	76	0	3
TAP	76	0	7
TAP	76	96	1
TAP	76	96	5
TAP	76	192	2
TAP	76	192	6
STR	76	288	0
SI_	76	288	0	96	48	5
TAP	76	288	4
STR	77	0	7
SI_	77	0	7	96	48	2
STR	77	96	3
SI_	77	96	3	96	48	0
TAP	77	192	5
TAP	77	288	7
TAP	78	0	0
TAP	78	0	4
TAP	78	96	2
TAP	78	96	6
TAP	78	192	1
TAP	78	192	5
TAP	78	288	3
TAP	78	288	7
TAP	79	0	2
TAP	79	96	1
TAP	79	192	2
TAP	79	240	2
STR	79	288	2
SI_	79	288	2	96	48	5
STR	79	336	2
SI_	79	336	2	96	48	7
TAP	80	192	1
TAP	80	288	5
TAP	81	0	3
TAP	81	48	3
TAP	81	144	3
BRK	81	192	3
BRK	81	192	7
BRK	81	288	1
BRK	81	288	5
TAP	82	0	5
STR	82	0	6
SI_	82	0	6	96	96	1
TAP	82	192	5
TAP	82	240	5
STR	82	336	2
SI_	82	336	2	96	144	6
TAP	83	192	4
TAP	83	240	4
TAP	83	288	3
TAP	83	336	5
STR	84	0	4
SI_	84	0	4	96	96	1
TAP	84	192	6
TAP	84	240	6
STR	84	336	2
SI_	84	336	2	96	144	6
TAP	85	192	2
TAP	85	288	5
STR	86	0	1
SI_	86	0	1	96	96	6
TAP	86	192	5
TAP	86	240	5
STR	86	336	5
SI_	86	336	5	96	144	1
TAP	87	192	3
TAP	87	240	3
TAP	87	288	4
TAP	87	336	2
STR	88	0	3
SI_	88	0	3	96	96	6
TAP	88	192	1
TAP	88	240	1
STR	88	336	5
SI_	88	336	5	96	144	1
TAP	89	192	7
TAP	89	288	0
TAP	89	288	4
TAP	90	0	5
STR	90	0	6
SI_	90	0	6	96	96	1
TAP	90	192	4
TAP	90	240	3
TAP	90	288	4
TAP	90	336	3
HLD	91	0	4	96
TAP	91	96	2
TAP	91	144	2
TAP	91	192	3
TAP	91	288	2
STR	92	0	5
SI_	92	0	5	96	96	1
TAP	92	0	6
TAP	92	192	3
TAP	92	240	2
TAP	92	288	3
TAP	92	336	2
HLD	93	0	3	96
TAP	93	96	1
TAP	93	144	1
TAP	93	192	0
TAP	93	240	0
TAP	93	336	1
STR	94	0	1
SI_	94	0	1	96	96	6
TAP	94	192	4
TAP	94	240	3
TAP	94	288	4
TAP	94	336	3
HLD	95	0	4	96
TAP	95	96	3
TAP	95	144	3
TAP	95	192	4
TAP	95	288	5
TAP	95	336	0
TAP	96	0	6
TAP	96	48	0
TAP	96	96	1
TAP	96	144	2
TAP	96	192	3
TAP	96	192	6
TAP	96	216	2
TAP	96	240	1
TAP	96	264	0
TAP	96	288	7
TAP	96	312	6
TAP	96	336	5
TAP	96	360	4
TAP	97	0	3
TAP	97	0	7
TAP	97	96	2
TAP	97	96	6
BRK	97	192	1
BRK	97	192	5
STR	98	0	1
SI_	98	0	1	96	48	5
TAP	98	0	5
TAP	98	96	1
TAP	98	96	7
STR	98	192	0
SI_	98	192	0	96	48	4
TAP	98	192	4
TAP	98	288	0
STR	98	288	7
SI_	98	288	7	96	48	3
STR	99	0	2
SI_	99	0	2	96	48	7
STR	99	96	6
SI_	99	96	6	96	48	2
TAP	99	192	2
TAP	99	288	0
TAP	100	0	2
STR	100	0	6
SI_	100	0	6	96	48	2
TAP	100	96	0
TAP	100	96	6
TAP	100	192	3
STR	100	192	7
SI_	100	192	7	96	48	3
STR	100	288	0
SI_	100	288	0	96	48	4
TAP	100	288	7
STR	101	0	5
SI_	101	0	5	96	48	0
STR	101	96	1
SI_	101	96	1	96	48	5
TAP	101	192	5
TAP	101	288	7
STR	102	0	1
SI_	102	0	1	96	48	5
TAP	102	0	5
TAP	102	96	1
TAP	102	96	7
STR	102	192	0
SI_	102	192	0	96	48	4
TAP	102	192	4
TAP	102	288	0
STR	102	288	7
SI_	102	288	7	96	48	3
STR	103	0	2
SI_	103	0	2	96	48	7
STR	103	96	6
SI_	103	96	6	96	48	2
TAP	103	192	2
TAP	103	288	6
TAP	103	336	5
TAP	104	48	4
TAP	104	96	3
TAP	104	144	2
TAP	104	192	1
TAP	104	240	2
STR	104	288	3
SI_	104	288	3	96	48	7
TAP	104	336	4
STR	105	0	5
SI_	105	0	5	96	48	1
STR	105	96	2
SI_	105	96	2	96	48	7
TAP	105	192	6
TAP	105	288	4
TAP	106	0	1
STR	106	0	5
SI_	106	0	5	96	48	1
TAP	106	96	3
TAP	106	96	5
TAP	106	192	0
STR	106	192	4
SI_	106	192	4	96	48	0
STR	106	288	3
SI_	106	288	3	96	48	7
TAP	106	288	4
STR	107	0	6
SI_	107	0	6	96	48	3
STR	107	96	2
SI_	107	96	2	96	48	6
TAP	107	192	6
TAP	107	288	4
STR	108	0	2
SI_	108	0	2	96	48	6
TAP	108	0	6
TAP	108	96	2
TAP	108	96	4
STR	108	192	3
SI_	108	192	3	96	48	7
TAP	108	192	7
TAP	108	288	3
STR	108	288	4
SI_	108	288	4	96	48	0
STR	109	0	1
SI_	109	0	1	96	48	4
STR	109	96	5
SI_	109	96	5	96	48	1
TAP	109	192	1
TAP	109	288	3
TAP	110	0	1
STR	110	0	5
SI_	110	0	5	96	48	1
TAP	110	96	3
TAP	110	96	5
TAP	110	192	0
STR	110	192	4
SI_	110	192	4	96	48	0
STR	110	288	3
SI_	110	288	3	96	48	7
TAP	110	288	4
STR	111	0	6
SI_	111	0	6	96	48	3
STR	111	96	2
SI_	111	96	2	96	48	6
TAP	111	192	6
TAP	111	288	0
TAP	111	336	1
TAP	112	48	2
TAP	112	96	1
TAP	112	144	0
TAP	112	192	4
TAP	112	240	5
TAP	112	288	6
TAP	112	336	7
TAP	113	0	0
TAP	113	96	0
TAP	113	192	0
BRK	113	288	0
TAP	113	288	7
TAP	114	0	2
TAP	114	48	2
TAP	114	96	0
TAP	114	144	0
TAP	114	192	1
TAP	114	240	1
STR	114	288	7
SI_	114	288	7	96	48	3
TAP	114	336	7
STR	115	0	0
SI_	115	0	0	96	48	4
TAP	115	48	0
STR	115	96	6
SI_	115	96	6	96	48	2
TAP	115	144	6
TAP	115	192	7
TAP	115	240	7
BRK	115	288	3
TAP	115	288	7
TAP	116	0	5
TAP	116	48	5
TAP	116	96	7
TAP	116	144	7
TAP	116	192	6
TAP	116	240	6
STR	116	288	0
SI_	116	288	0	96	48	4
TAP	116	336	0
STR	117	0	7
SI_	117	0	7	96	48	3
TAP	117	48	7
STR	117	96	1
SI_	117	96	1	96	48	5
TAP	117	144	1
TAP	117	192	0
TAP	117	240	0
TAP	117	288	0
BRK	117	288	4
TAP	118	0	3
TAP	118	48	3
TAP	118	96	5
TAP	118	144	5
TAP	118	192	2
TAP	118	240	2
STR	118	288	6
SI_	118	288	6	96	48	2
TAP	118	336	6
STR	119	0	1
SI_	119	0	1	96	48	5
TAP	119	48	1
STR	119	96	7
SI_	119	96	7	96	48	3
TAP	119	144	7
TAP	119	192	0
TAP	119	240	0
TAP	119	288	0
BRK	119	288	4
TAP	120	0	4
TAP	120	48	4
TAP	120	96	2
TAP	120	144	2
TAP	120	192	5
TAP	120	240	5
STR	120	288	1
SI_	120	288	1	96	48	5
TAP	120	336	1
STR	121	0	6
SI_	121	0	6	96	48	2
TAP	121	48	6
STR	121	96	0
SI_	121	96	0	96	48	4
TAP	121	144	0
TAP	121	192	7
TAP	121	240	7
BRK	121	288	3
STR	121	288	7
SI_	121	288	7	96	48	3
STR	122	0	0
SI_	122	0	0	96	48	4
TAP	122	48	0
STR	122	96	6
SI_	122	96	6	96	48	2
TAP	122	144	6
STR	122	192	1
SI_	122	192	1	96	48	5
TAP	122	240	1
STR	122	288	7
SI_	122	288	7	96	48	3
TAP	122	336	7
STR	123	0	0
SI_	123	0	0	96	48	4
TAP	123	48	0
TAP	123	96	7
TAP	123	144	7
TAP	123	192	1
TAP	123	240	1
STR	123	288	1
SI_	123	288	1	96	48	5
BRK	123	288	7
STR	124	0	6
SI_	124	0	6	96	48	2
TAP	124	48	6
STR	124	96	0
SI_	124	96	0	96	48	4
TAP	124	144	0
STR	124	192	7
SI_	124	192	7	96	48	3
TAP	124	240	7
STR	124	288	1
SI_	124	288	1	96	48	5
TAP	124	336	1
STR	125	0	6
SI_	125	0	6	96	48	2
TAP	125	48	6
STR	125	96	0
SI_	125	96	0	96	48	4
TAP	125	144	0
TAP	125	192	7
TAP	125	240	7
BRK	125	288	3
TAP	125	288	7
TAP	126	0	2
TAP	126	0	6
TAP	126	48	2
TAP	126	48	6
TAP	126	96	1
TAP	126	96	5
TAP	126	144	1
TAP	126	144	5
TAP	126	192	0
TAP	126	192	4
TAP	126	240	0
TAP	126	240	4
TAP	126	288	3
TAP	126	288	7
TAP	126	336	3
TAP	126	336	7
TAP	127	0	2
TAP	127	0	6
TAP	127	24	7
TAP	127	48	0
TAP	127	72	1
TAP	127	96	2
TAP	127	120	1
TAP	127	144	0
TAP	127	168	7
TAP	127	192	0
TAP	127	216	1
TAP	127	240	2
TAP	127	264	3
TAP	127	288	4
TAP	127	312	5
TAP	127	336	6
TAP	127	360	7
TAP	128	48	7
TAP	128	96	6
TAP	128	144	5
TAP	128	192	0
TAP	128	240	1
TAP	128	288	2
TAP	128	336	3
BRK	129	0	4
TAP	130	0	0
TAP	130	0	7

T_REC_TAP	584
T_REC_BRK	19
T_REC_XTP	0
T_REC_HLD	6
T_REC_XHO	0
T_REC_STR	134
T_REC_BST	0
T_REC_XST	0
T_REC_TTP	0
T_REC_THO	0
T_REC_SLD	134
T_REC_ALL	877
T_NUM_TAP	718
T_NUM_BRK	19
T_NUM_HLD	6
T_NUM_SLD	134
T_NUM_ALL	877
T_JUDGE_TAP	737
T_JUDGE_HLD	12
T_JUDGE_SLD	134
T_JUDGE_ALL	883
TTM_EACHPAIRS	148
TTM_SCR_TAP	359000
TTM_SCR_BRK	49400
TTM_SCR_HLD	6000
TTM_SCR_SLD	201000
TTM_SCR_ALL	615400
TTM_SCR_S	595100
TTM_SCR_SS	613500
TTM_RAT_ACV	10030

