VERSION	0.00.00	1.03.00
FES_MODE	0
BPM_DEF	256.000	256.000	256.000	256.000
MET_DEF	4	4
RESOLUTION	384
CLK_DEF	384
COMPATIBLE_CODE	MA2

BPM	0	0	256.000
MET	0	0	4	4

HLD	2	0	1	192
TAP	2	192	2
STR	2	240	2
SCL	2	240	2	96	240	7
HLD	4	0	6	192
TAP	4	192	5
STR	4	240	5
SCR	4	240	5	96	240	0
HLD	6	0	2	192
TAP	6	192	1
STR	6	240	1
SCR	6	240	1	96	240	4
HLD	8	0	5	192
TAP	8	192	6
STR	8	240	6
SCL	8	240	6	96	240	3
TAP	9	192	0
TAP	9	288	1
BRK	10	0	2
STR	10	0	7
SI_	10	0	7	96	288	3
TAP	10	96	2
TAP	10	192	2
TAP	10	288	2
TAP	11	0	2
TAP	11	96	2
TAP	11	192	2
TAP	11	288	2
STR	12	0	0
SI_	12	0	0	96	288	4
BRK	12	0	2
TAP	12	96	2
TAP	12	192	2
TAP	12	288	2
TAP	13	0	2
TAP	13	96	2
TAP	13	192	2
TAP	13	288	2
STR	14	0	0
SI_	14	0	0	96	96	4
BRK	14	0	5
TAP	14	96	5
TAP	14	192	5
TAP	14	288	5
BRK	15	0	5
STR	15	0	7
SI_	15	0	7	96	96	3
TAP	15	96	5
TAP	15	192	5
TAP	15	288	5
STR	16	0	0
SI_	16	0	0	96	96	4
BRK	16	0	5
TAP	16	96	5
STR	16	192	5
SI_	16	192	5	96	96	1
STR	17	0	2
SI_	17	0	2	96	96	6
BRK	17	192	7
TAP	18	0	2
TAP	18	0	3
TAP	18	96	2
TAP	18	96	3
TAP	18	192	4
TAP	18	192	5
TAP	18	288	4
TAP	18	288	5
TAP	19	0	1
TAP	19	0	3
TAP	19	96	4
TAP	19	96	5
TAP	19	192	1
TAP	19	192	3
TAP	19	288	2
TAP	19	288	3
TAP	20	0	4
TAP	20	0	5
TAP	20	96	4
TAP	20	96	5
TAP	20	192	2
TAP	20	192	3
TAP	20	288	2
TAP	20	288	3
STR	21	0	1
SCL	21	0	1	96	96	6
STR	21	0	3
SI_	21	0	3	96	96	6
TAP	22	0	2
TAP	22	0	3
TAP	22	96	2
TAP	22	96	3
TAP	22	192	4
TAP	22	192	5
TAP	22	288	4
TAP	22	288	5
HLD	23	0	2	96
HLD	23	96	3	96
TAP	23	192	2
TAP	23	288	4
TAP	23	288	5
HLD	24	0	1	144
HLD	24	0	3	144
TAP	24	192	1
TAP	24	192	7
TAP	24	288	0
TAP	24	288	6
TAP	25	0	5
TAP	25	0	7
TAP	25	96	4
TAP	25	96	6
TAP	25	192	3
TAP	25	192	5
BRK	25	288	2
BRK	25	288	4
HLD	26	0	2	144
HLD	26	0	3	144
TAP	26	192	2
TAP	26	192	3
TAP	26	288	2
TAP	26	288	3
TAP	27	0	4
TAP	27	0	6
TAP	27	96	2
TAP	27	96	3
TAP	27	192	4
TAP	27	192	6
TAP	27	288	2
TAP	27	288	3
TAP	28	0	4
TAP	28	0	5
TAP	28	96	4
TAP	28	96	5
TAP	28	192	2
TAP	28	192	3
TAP	28	288	2
TAP	28	288	3
STR	29	0	4
SI_	29	0	4	96	96	1
STR	29	0	6
SCR	29	0	6	96	96	1
TAP	30	0	4
TAP	30	0	5
TAP	30	96	4
TAP	30	96	5
TAP	30	192	2
TAP	30	192	3
TAP	30	288	2
TAP	30	288	3
TAP	31	0	4
TAP	31	0	6
TAP	31	96	2
TAP	31	96	3
TAP	31	192	4
TAP	31	192	6
TAP	31	288	2
TAP	31	288	3
TAP	32	0	7
TAP	32	48	7
TAP	32	96	7
TAP	32	144	7
TAP	32	192	1
TAP	32	240	1
TAP	32	288	1
TAP	32	336	1
TAP	33	0	0
TAP	33	0	2
TAP	33	96	1
TAP	33	96	3
TAP	33	192	2
TAP	33	192	4
BRK	33	288	3
BRK	33	288	5
TAP	34	0	5
TAP	34	0	6
TAP	34	96	3
TAP	34	96	4
TAP	34	192	5
TAP	34	192	6
TAP	34	288	3
TAP	34	288	4
TAP	35	0	0
TAP	35	0	2
TAP	35	96	3
TAP	35	96	4
TAP	35	192	0
TAP	35	192	2
TAP	35	288	3
TAP	35	288	4
TAP	36	0	5
TAP	36	0	6
TAP	36	96	3
TAP	36	96	4
TAP	36	192	5
TAP	36	192	6
TAP	36	288	3
TAP	36	288	4
TAP	37	0	2
TAP	37	0	5
TAP	37	96	3
TAP	37	96	4
TAP	37	192	2
TAP	37	192	5
TAP	37	288	3
TAP	37	288	4
TAP	38	0	5
TAP	38	0	6
TAP	38	96	3
TAP	38	96	4
TAP	38	192	5
TAP	38	192	6
TAP	38	288	3
TAP	38	288	4
STR	39	0	0
SI_	39	0	0	96	96	4
TAP	39	0	2
HLD	39	288	7	96
HLD	40	0	0	96
HLD	40	96	1	96
HLD	40	192	2	96
HLD	40	288	7	96
HLD	41	0	1	96
HLD	41	96	3	96
HLD	41	192	5	96
BRK	41	288	3
TAP	42	0	1
TAP	42	0	2
TAP	42	96	3
TAP	42	96	4
TAP	42	192	1
TAP	42	192	2
TAP	42	288	3
TAP	42	288	4
TAP	43	0	5
TAP	43	0	7
TAP	43	96	3
TAP	43	96	4
TAP	43	192	5
TAP	43	192	7
TAP	43	288	3
TAP	43	288	4
TAP	44	0	1
TAP	44	0	2
TAP	44	96	3
TAP	44	96	4
TAP	44	192	1
TAP	44	192	2
TAP	44	288	3
TAP	44	288	4
TAP	45	0	2
TAP	45	0	5
TAP	45	96	3
TAP	45	96	4
TAP	45	192	2
TAP	45	192	5
TAP	45	288	3
TAP	45	288	4
TAP	46	0	1
TAP	46	0	2
TAP	46	96	3
TAP	46	96	4
TAP	46	192	1
TAP	46	192	2
TAP	46	288	3
TAP	46	288	4
TAP	47	0	5
TAP	47	0	7
TAP	47	96	3
TAP	47	96	4
TAP	47	192	5
TAP	47	192	7
TAP	47	288	3
TAP	47	288	4
HLD	48	0	1	144
HLD	48	144	7	432
STR	48	240	0
SI_	48	240	0	96	96	5
HLD	50	0	7	144
HLD	50	144	0	144
HLD	50	288	1	144
HLD	51	48	2	144
TAP	51	192	3
TAP	51	288	4
TAP	51	288	5
HLD	52	0	0	144
HLD	52	144	7	144
HLD	52	288	6	144
HLD	53	48	5	144
TAP	53	192	4
TAP	53	288	2
TAP	53	288	3
HLD	54	0	7	144
HLD	54	144	0	144
HLD	54	288	1	144
HLD	55	48	2	144
TAP	55	192	4
TAP	55	288	3
TAP	55	288	5
HLD	56	0	0	144
HLD	56	144	7	144
HLD	56	288	6	144
HLD	57	48	5	144
TAP	57	192	3
TAP	57	288	2
TAP	57	288	4
HLD	58	0	2	288
HLD	58	0	3	288
TAP	59	0	1
TAP	59	0	7
TAP	59	144	5
TAP	59	144	7
BRK	59	288	3
BRK	59	288	5
HLD	60	0	4	288
HLD	60	0	5	288
TAP	61	0	0
TAP	61	0	6
TAP	61	144	0
TAP	61	144	2
BRK	61	288	2
BRK	61	288	4
HLD	62	0	2	96
HLD	62	0	3	96
TAP	62	192	1
TAP	62	192	7
BRK	62	288	0
BRK	62	288	6
HLD	63	0	4	96
HLD	63	0	5	96
TAP	63	192	0
TAP	63	192	6
BRK	63	288	1
BRK	63	288	7
TAP	64	0	6
TAP	64	0	7
TAP	64	96	2
TAP	64	96	3
TAP	64	192	0
TAP	64	192	1
BRK	64	288	4
BRK	64	288	5
STR	65	0	6
SCR	65	0	6	96	96	1
STR	65	96	1
SCR	65	96	1	96	96	4
TAP	66	0	6
TAP	66	0	7
TAP	66	96	5
TAP	66	192	0
TAP	66	192	1
TAP	66	288	2
TAP	67	0	6
TAP	67	0	7
TAP	67	96	5
TAP	67	192	0
TAP	67	192	1
TAP	67	288	2
TAP	68	0	6
TAP	68	0	7
TAP	68	96	2
TAP	68	192	0
TAP	68	192	1
TAP	68	288	5
TAP	69	0	6
TAP	69	0	7
TAP	69	96	2
TAP	69	192	0
TAP	69	192	1
TAP	69	288	0
TAP	69	288	1
TAP	70	0	6
TAP	70	0	7
TAP	70	96	4
TAP	70	192	0
TAP	70	192	1
TAP	70	288	3
TAP	71	0	6
TAP	71	0	7
TAP	71	96	4
TAP	71	192	0
TAP	71	192	1
TAP	71	288	3
TAP	72	0	6
TAP	72	0	7
TAP	72	96	3
TAP	72	192	0
TAP	72	192	1
TAP	72	288	4
STR	73	0	1
SCL	73	0	1	96	96	6
STR	73	96	6
SCL	73	96	6	96	96	3
TAP	74	0	6
TAP	74	96	4
TAP	74	96	5
TAP	74	192	1
TAP	74	288	2
TAP	74	288	3
TAP	75	0	6
TAP	75	96	4
TAP	75	96	5
TAP	75	192	1
TAP	75	288	2
TAP	75	288	3
TAP	76	0	7
TAP	76	96	4
TAP	76	96	5
TAP	76	192	0
TAP	76	288	2
TAP	76	288	3
TAP	77	0	7
TAP	77	96	4
TAP	77	96	5
TAP	77	192	0
TAP	77	192	7
TAP	77	288	2
TAP	77	288	3
TAP	78	0	0
TAP	78	96	4
TAP	78	96	5
TAP	78	192	7
TAP	78	288	2
TAP	78	288	3
TAP	79	0	0
TAP	79	96	4
TAP	79	96	5
TAP	79	192	7
TAP	79	288	2
TAP	79	288	3
STR	80	0	7
SCR	80	0	7	96	192	2
TAP	80	48	6
STR	80	96	5
SCL	80	96	5	96	96	2
STR	81	0	0
SCL	81	0	0	96	192	5
TAP	81	48	1
STR	81	96	2
SCR	81	96	2	96	96	5
HLD	82	0	6	576
TAP	82	192	7
STR	82	240	7
SI_	82	240	7	96	96	4
HLD	83	192	4	96
HLD	83	288	3	96
HLD	84	0	1	576
TAP	84	192	0
STR	84	240	0
SI_	84	240	0	96	96	3
HLD	85	192	0	96
HLD	85	288	7	96
HLD	86	0	5	576
TAP	86	192	4
STR	86	240	4
SI_	86	240	4	96	96	7
HLD	87	192	7	96
HLD	87	288	0	96
HLD	88	0	2	576
TAP	88	192	3
STR	88	240	3
SI_	88	240	3	96	96	0
TAP	90	0	3
TAP	90	0	4
TAP	90	96	5
TAP	90	192	6
TAP	90	288	7
TAP	91	0	0
TAP	91	96	0
TAP	91	192	1
TAP	91	288	2
TAP	92	0	3
TAP	92	0	4
TAP	92	96	2
TAP	92	192	1
TAP	92	288	0
TAP	93	0	7
TAP	93	96	7
TAP	93	192	6
TAP	93	288	5
TAP	94	0	3
TAP	94	0	4
TAP	94	96	1
TAP	94	192	5
TAP	94	240	4
TAP	94	288	5
TAP	95	0	3
TAP	95	0	4
TAP	95	96	6
TAP	95	192	2
TAP	95	240	3
TAP	95	288	2
TAP	96	0	3
TAP	96	0	4
TAP	96	96	7
TAP	96	192	3
TAP	96	192	4
TAP	96	288	0
TAP	97	0	3
TAP	97	0	4
STR	97	96	2
SI_	97	96	2	96	96	7
STR	97	96	5
SI_	97	96	5	96	96	0
TAP	98	0	6
TAP	98	0	7
TAP	98	96	6
TAP	98	96	7
TAP	98	192	2
TAP	98	240	3
TAP	98	288	2
TAP	98	336	3
TAP	99	0	2
TAP	99	96	5
TAP	99	144	4
TAP	99	192	5
TAP	99	288	2
TAP	99	288	4
TAP	100	0	0
TAP	100	0	1
TAP	100	96	0
TAP	100	96	1
TAP	100	192	5
TAP	100	240	4
TAP	100	288	5
TAP	100	336	4
TAP	101	0	5
TAP	101	96	2
TAP	101	144	3
TAP	101	192	2
TAP	101	288	3
TAP	101	288	5
TAP	102	0	6
TAP	102	0	7
TAP	102	96	6
TAP	102	96	7
TAP	102	192	2
TAP	102	240	3
TAP	102	288	2
TAP	102	336	3
TAP	103	0	2
TAP	103	96	5
TAP	103	144	4
TAP	103	192	5
TAP	103	288	2
HLD	103	336	3	96
TAP	104	48	1
TAP	104	96	7
TAP	104	144	1
TAP	104	192	7
TAP	104	240	0
TAP	104	288	6
TAP	104	336	0
STR	105	0	6
SI_	105	0	6	96	96	3
STR	105	96	0
SI_	105	96	0	96	96	4
BRK	105	288	7
TAP	106	0	0
TAP	106	0	2
TAP	106	96	0
TAP	106	96	2
TAP	106	192	5
TAP	106	240	4
TAP	106	288	5
TAP	106	336	6
TAP	107	0	5
TAP	107	96	2
TAP	107	144	3
TAP	107	192	2
TAP	107	288	4
TAP	107	288	6
TAP	108	0	5
TAP	108	0	7
TAP	108	96	5
TAP	108	96	7
TAP	108	192	2
TAP	108	240	3
TAP	108	288	2
TAP	108	336	1
TAP	109	0	2
TAP	109	96	5
TAP	109	144	4
TAP	109	192	5
TAP	109	288	1
TAP	109	288	3
TAP	110	0	0
TAP	110	0	2
TAP	110	96	0
TAP	110	96	2
TAP	110	192	5
TAP	110	240	4
TAP	110	288	5
TAP	110	336	6
TAP	111	0	5
TAP	111	96	2
TAP	111	144	3
TAP	111	192	2
TAP	111	288	5
HLD	111	336	4	96
TAP	112	48	6
TAP	112	96	0
TAP	112	144	6
TAP	112	192	0
TAP	112	240	7
TAP	112	288	1
TAP	112	336	7
STR	113	0	1
SI_	113	0	1	96	96	4
STR	113	96	7
SI_	113	96	7	96	96	3
BRK	113	288	0
TAP	114	0	3
TAP	114	48	4
TAP	114	96	2
TAP	114	144	5
TAP	114	192	3
TAP	114	240	4
TAP	114	288	2
TAP	114	336	5
TAP	115	0	3
TAP	115	48	4
TAP	115	96	2
TAP	115	144	5
TAP	115	192	3
BRK	115	288	2
BRK	115	288	5
TAP	116	0	7
TAP	116	48	0
TAP	116	96	6
TAP	116	144	1
TAP	116	192	7
TAP	116	240	0
TAP	116	288	6
TAP	116	336	1
TAP	117	0	7
TAP	117	48	0
TAP	117	96	6
TAP	117	144	1
TAP	117	192	7
BRK	117	288	1
BRK	117	288	6
TAP	118	0	2
TAP	118	48	3
TAP	118	96	1
TAP	118	144	4
TAP	118	192	2
TAP	118	240	3
TAP	118	288	1
TAP	118	336	4
TAP	119	0	2
TAP	119	48	3
TAP	119	96	1
TAP	119	144	4
TAP	119	192	2
BRK	119	288	1
BRK	119	288	4
TAP	120	0	5
TAP	120	48	4
TAP	120	96	6
TAP	120	144	3
TAP	120	192	5
TAP	120	240	4
TAP	120	288	6
TAP	120	336	3
TAP	121	0	5
TAP	121	48	4
TAP	121	96	6
TAP	121	144	3
TAP	121	192	5
BRK	121	288	3
BRK	121	288	6
TAP	122	0	4
TAP	122	48	4
TAP	122	96	4
TAP	122	144	4
TAP	122	192	2
TAP	122	240	2
TAP	122	288	2
TAP	122	336	2
TAP	123	0	3
TAP	123	48	3
TAP	123	96	3
TAP	123	144	3
TAP	123	192	2
TAP	123	192	3
TAP	123	240	2
TAP	123	240	3
TAP	123	288	2
TAP	123	288	3
TAP	124	0	3
TAP	124	48	3
TAP	124	96	3
TAP	124	144	3
TAP	124	192	5
TAP	124	240	5
TAP	124	288	5
TAP	124	336	5
TAP	125	0	4
TAP	125	48	4
TAP	125	96	4
TAP	125	144	4
TAP	125	192	4
TAP	125	192	5
TAP	125	240	4
TAP	125	240	5
TAP	125	288	4
TAP	125	288	5
TAP	126	0	1
TAP	126	48	1
TAP	126	96	1
TAP	126	144	1
TAP	126	192	6
TAP	126	240	6
TAP	126	288	6
TAP	126	336	6
TAP	127	0	0
TAP	127	48	0
TAP	127	96	0
TAP	127	144	0
TAP	127	192	0
TAP	127	192	7
TAP	127	240	0
TAP	127	240	7
TAP	127	288	0
TAP	127	288	7
TAP	127	336	0
HLD	127	336	7	96
TAP	128	48	6
TAP	128	96	7
TAP	128	144	0
TAP	128	192	7
TAP	128	240	0
TAP	128	288	1
TAP	128	336	0
TAP	129	0	7
HLD	129	48	7	96
HLD	129	144	5	96
HLD	129	240	3	96
STR	129	336	1
SI_	129	336	1	96	48	5
TAP	130	0	1

T_REC_TAP	577
T_REC_BRK	31
T_REC_XTP	0
T_REC_HLD	60
T_REC_XHO	0
T_REC_STR	36
T_REC_BST	0
T_REC_XST	0
T_REC_TTP	0
T_REC_THO	0
T_REC_SLD	36
T_REC_ALL	740
T_NUM_TAP	613
T_NUM_BRK	31
T_NUM_HLD	60
T_NUM_SLD	36
T_NUM_ALL	740
T_JUDGE_TAP	644
T_JUDGE_HLD	117
T_JUDGE_SLD	36
T_JUDGE_ALL	797
TTM_EACHPAIRS	187
TTM_SCR_TAP	306500
TTM_SCR_BRK	80600
TTM_SCR_HLD	60000
TTM_SCR_SLD	54000
TTM_SCR_ALL	501100
TTM_SCR_S	483100
TTM_SCR_SS	498000
TTM_RAT_ACV	10062

