VERSION	0.00.00	1.03.00
FES_MODE	0
BPM_DEF	256.000	256.000	256.000	256.000
MET_DEF	4	4
RESOLUTION	384
CLK_DEF	384
COMPATIBLE_CODE	MA2

BPM	0	0	256.000
MET	0	0	4	4

HLD	10	0	0	576
HLD	12	0	1	576
TAP	14	0	1
TAP	14	192	1
TAP	15	0	2
TAP	15	192	2
TAP	16	0	3
TAP	16	192	3
TAP	17	0	4
BRK	17	192	6
TAP	18	0	0
TAP	18	96	0
TAP	18	192	7
TAP	18	288	7
TAP	19	0	6
TAP	19	96	6
TAP	19	192	5
TAP	19	192	6
TAP	20	0	7
TAP	20	96	7
TAP	20	192	0
TAP	20	288	0
TAP	21	0	1
TAP	21	96	1
TAP	21	192	1
TAP	21	192	2
TAP	22	0	0
TAP	22	96	7
TAP	22	192	6
TAP	22	288	5
TAP	23	0	4
TAP	23	96	3
TAP	23	192	2
STR	23	288	1
SI_	23	288	1	96	288	6
TAP	26	0	6
TAP	26	0	7
TAP	26	144	0
TAP	26	144	7
TAP	26	288	0
TAP	26	288	1
BRK	27	0	0
BRK	27	0	1
TAP	28	0	7
TAP	28	96	7
TAP	28	192	5
TAP	28	288	5
TAP	29	0	3
TAP	29	96	3
HLD	29	192	1	96
TAP	30	0	0
TAP	30	96	1
TAP	30	192	2
TAP	30	288	3
TAP	31	0	4
TAP	31	96	5
TAP	31	192	6
STR	31	288	7
SI_	31	288	7	96	288	4
TAP	34	0	3
TAP	34	0	4
TAP	34	96	2
TAP	34	96	3
BRK	34	192	3
BRK	34	192	4
TAP	35	0	2
TAP	35	96	3
TAP	35	192	4
TAP	36	0	3
TAP	36	0	4
TAP	36	96	4
TAP	36	96	5
BRK	36	192	3
BRK	36	192	4
TAP	37	0	5
TAP	37	96	4
TAP	37	192	3
TAP	38	0	3
TAP	38	0	4
TAP	38	96	2
TAP	38	96	3
BRK	38	192	3
BRK	38	192	4
TAP	39	0	2
TAP	39	96	3
TAP	39	192	4
STR	39	288	5
SI_	39	288	5	96	288	2
TAP	42	0	0
TAP	42	0	1
TAP	42	96	0
TAP	42	96	7
BRK	42	192	0
BRK	42	192	1
TAP	43	0	2
TAP	43	96	1
TAP	43	192	0
TAP	44	0	6
TAP	44	0	7
TAP	44	96	0
TAP	44	96	7
BRK	44	192	6
BRK	44	192	7
TAP	45	0	5
TAP	45	96	6
TAP	45	192	7
TAP	46	0	6
TAP	46	0	7
TAP	46	96	0
TAP	46	96	7
BRK	46	192	6
BRK	46	192	7
TAP	47	0	0
TAP	47	0	1
TAP	47	96	0
TAP	47	96	7
BRK	47	192	0
BRK	47	192	1
HLD	48	0	0	96
HLD	48	0	7	96
BRK	48	240	0
BRK	48	240	7
BRK	48	336	0
BRK	48	336	7
TAP	50	0	0
TAP	50	144	2
HLD	50	288	4	288
TAP	52	0	2
TAP	52	144	0
HLD	52	288	6	288
TAP	54	0	5
TAP	54	144	7
HLD	54	288	1	192
TAP	55	96	2
TAP	55	192	2
TAP	56	0	7
TAP	56	144	5
HLD	56	288	3	288
TAP	57	192	2
TAP	58	0	0
TAP	58	0	7
TAP	58	288	0
TAP	58	288	1
TAP	59	0	0
TAP	59	0	7
TAP	60	0	0
TAP	60	0	7
TAP	60	288	6
TAP	60	288	7
TAP	61	0	0
TAP	61	0	7
TAP	62	0	0
TAP	62	0	7
TAP	62	288	0
TAP	62	288	1
TAP	63	0	0
TAP	63	0	7
TAP	64	0	6
TAP	64	0	7
TAP	64	192	4
TAP	64	192	5
TAP	65	0	2
TAP	65	0	3
BRK	65	192	0
BRK	65	192	1
TAP	66	0	2
TAP	66	96	2
TAP	66	192	3
TAP	66	288	3
TAP	67	0	4
TAP	67	96	4
TAP	67	192	5
TAP	68	0	4
TAP	68	96	4
TAP	68	192	3
TAP	68	288	3
TAP	69	0	2
TAP	69	96	2
TAP	69	192	1
TAP	70	0	2
TAP	70	96	2
TAP	70	192	3
TAP	70	288	3
TAP	71	0	4
TAP	71	96	4
TAP	71	192	5
TAP	72	0	6
TAP	72	96	5
TAP	72	192	4
TAP	72	288	3
TAP	73	0	2
TAP	73	96	1
BRK	73	192	0
BRK	73	192	7
TAP	74	0	2
TAP	74	96	2
TAP	74	192	3
TAP	74	288	3
TAP	75	0	4
TAP	75	96	4
TAP	75	192	5
TAP	76	0	4
TAP	76	96	4
TAP	76	192	3
TAP	76	288	3
TAP	77	0	2
TAP	77	96	2
TAP	77	192	1
TAP	78	0	0
TAP	78	96	1
TAP	78	192	2
TAP	78	288	3
TAP	79	0	4
TAP	79	96	5
TAP	79	192	6
TAP	79	288	7
HLD	80	0	0	480
BRK	81	192	0
HLD	82	0	7	192
TAP	82	192	6
HLD	82	336	5	240
HLD	84	0	7	192
TAP	84	192	0
HLD	84	336	1	240
HLD	86	0	2	192
TAP	86	192	3
HLD	86	336	4	240
HLD	88	0	5	192
TAP	88	192	4
HLD	88	336	3	240
TAP	90	0	1
TAP	90	96	1
TAP	90	192	1
TAP	91	0	0
TAP	91	96	0
TAP	91	192	0
TAP	92	0	2
TAP	92	96	2
TAP	92	192	2
TAP	93	0	4
TAP	93	96	4
TAP	93	192	4
TAP	94	0	2
TAP	94	0	3
TAP	94	96	1
TAP	94	192	1
TAP	95	0	3
TAP	95	0	4
TAP	95	96	5
TAP	95	192	5
TAP	96	0	3
TAP	96	0	4
TAP	96	192	1
TAP	96	192	2
BRK	97	0	0
BRK	97	0	7
TAP	98	0	1
TAP	98	96	1
TAP	98	192	2
TAP	98	288	2
TAP	99	0	3
TAP	99	96	3
TAP	99	192	4
TAP	99	192	5
TAP	100	0	2
TAP	100	96	2
TAP	100	192	1
TAP	100	288	1
TAP	101	0	0
TAP	101	96	0
TAP	101	192	6
TAP	101	192	7
TAP	102	0	0
TAP	102	96	0
TAP	102	192	2
TAP	102	288	2
TAP	103	0	4
TAP	103	96	4
TAP	103	192	5
TAP	103	192	6
TAP	104	0	3
TAP	104	0	4
TAP	104	192	1
TAP	104	192	2
TAP	105	0	0
TAP	105	0	7
TAP	105	96	0
TAP	105	96	7
BRK	105	192	6
BRK	105	192	7
TAP	106	0	0
TAP	106	96	1
TAP	106	192	2
TAP	106	288	3
TAP	107	0	4
TAP	107	96	5
TAP	107	192	6
TAP	107	192	7
TAP	108	0	0
TAP	108	96	7
TAP	108	192	6
TAP	108	288	5
TAP	109	0	4
TAP	109	96	3
TAP	109	192	1
TAP	109	192	2
TAP	110	0	3
TAP	110	96	3
TAP	110	192	5
TAP	110	288	5
TAP	111	0	7
TAP	111	96	7
TAP	111	192	0
TAP	111	192	1
TAP	112	0	6
TAP	112	0	7
TAP	112	192	4
TAP	112	192	5
TAP	113	0	5
TAP	113	0	6
TAP	113	96	6
TAP	113	96	7
BRK	113	192	0
BRK	113	192	7
TAP	114	0	6
TAP	114	96	6
TAP	114	192	5
TAP	114	288	5
TAP	115	0	4
TAP	115	96	4
TAP	115	192	3
TAP	115	288	3
TAP	116	0	2
TAP	116	96	2
TAP	116	192	1
TAP	116	288	1
TAP	117	0	0
TAP	117	96	0
TAP	117	192	7
BRK	117	288	7
TAP	118	0	1
TAP	118	96	1
TAP	118	192	2
TAP	118	288	2
TAP	119	0	3
TAP	119	96	3
TAP	119	192	4
TAP	119	288	4
TAP	120	0	5
TAP	120	96	5
TAP	120	192	6
TAP	120	288	6
TAP	121	0	7
TAP	121	96	7
BRK	121	192	0
BRK	121	192	7
TAP	122	0	6
TAP	122	96	5
TAP	122	192	4
TAP	122	288	3
TAP	123	0	2
TAP	123	96	1
TAP	123	192	0
BRK	123	288	7
TAP	124	0	0
TAP	124	96	1
TAP	124	192	2
TAP	124	288	3
TAP	125	0	4
TAP	125	96	5
TAP	125	192	6
BRK	125	288	7
TAP	126	0	6
TAP	126	96	6
TAP	126	192	4
TAP	126	288	4
TAP	127	0	2
TAP	127	96	2
TAP	127	192	0
TAP	127	288	0
TAP	128	0	1
TAP	128	96	3
TAP	128	192	5
TAP	128	288	7
TAP	129	0	0
TAP	129	0	1
TAP	129	96	1
TAP	129	96	2
HLD	129	192	0	96
HLD	129	192	1	96
BRK	130	0	0
BRK	130	0	7

T_REC_TAP	327
T_REC_BRK	39
T_REC_XTP	0
T_REC_HLD	20
T_REC_XHO	0
T_REC_STR	3
T_REC_BST	0
T_REC_XST	0
T_REC_TTP	0
T_REC_THO	0
T_REC_SLD	3
T_REC_ALL	392
T_NUM_TAP	330
T_NUM_BRK	39
T_NUM_HLD	20
T_NUM_SLD	3
T_NUM_ALL	392
T_JUDGE_TAP	369
T_JUDGE_HLD	53
T_JUDGE_SLD	3
T_JUDGE_ALL	425
TTM_EACHPAIRS	70
TTM_SCR_TAP	165000
TTM_SCR_BRK	101400
TTM_SCR_HLD	20000
TTM_SCR_SLD	4500
TTM_SCR_ALL	290900
TTM_SCR_S	278400
TTM_SCR_SS	287000
TTM_RAT_ACV	10135

