VERSION	0.00.00	1.03.00
FES_MODE	0
BPM_DEF	256.000	256.000	256.000	256.000
MET_DEF	4	4
RESOLUTION	384
CLK_DEF	384
COMPATIBLE_CODE	MA2

BPM	0	0	256.000
MET	0	0	4	4

STR	10	0	0
SI_	10	0	0	96	288	3
STR	12	0	7
SI_	12	0	7	96	288	4
STR	14	0	0
SI_	14	0	0	96	288	3
STR	16	0	7
SI_	16	0	7	96	288	4
TAP	18	0	1
TAP	18	192	1
TAP	19	0	1
TAP	20	0	2
TAP	20	192	2
HLD	21	0	2	192
TAP	22	0	5
TAP	22	192	5
TAP	23	0	5
STR	24	0	4
SI_	24	0	4	96	288	7
HLD	26	0	0	192
TAP	27	0	1
TAP	27	192	1
HLD	28	0	7	192
TAP	29	0	6
TAP	29	192	6
HLD	30	0	1	192
TAP	31	0	2
TAP	31	192	2
STR	32	0	2
SI_	32	0	2	96	288	5
TAP	34	0	7
HLD	34	192	7	192
TAP	35	192	6
TAP	35	192	7
TAP	36	0	0
HLD	36	192	0	192
TAP	37	192	0
TAP	37	192	1
TAP	38	0	6
HLD	38	192	6	192
TAP	39	192	5
TAP	39	192	6
STR	40	0	6
SI_	40	0	6	96	288	1
TAP	42	0	2
TAP	42	96	2
TAP	42	192	2
TAP	43	0	3
TAP	43	192	3
TAP	44	0	4
TAP	44	96	4
TAP	44	192	4
TAP	45	0	5
TAP	45	192	5
TAP	46	0	6
TAP	46	96	6
TAP	46	192	6
TAP	47	0	7
TAP	47	192	7
STR	48	0	0
SI_	48	0	0	96	288	4
TAP	50	0	2
HLD	50	192	2	288
TAP	51	192	2
TAP	52	0	5
HLD	52	192	5	288
TAP	53	192	5
TAP	54	0	6
HLD	54	192	6	288
TAP	55	192	6
TAP	56	0	1
HLD	56	192	1	288
TAP	57	192	1
TAP	58	0	0
TAP	58	0	7
HLD	59	0	1	288
HLD	59	0	6	288
TAP	60	0	1
TAP	60	0	6
HLD	61	0	2	288
HLD	61	0	5	288
TAP	62	0	2
TAP	62	0	5
TAP	63	0	3
TAP	63	0	4
TAP	64	0	3
TAP	64	0	4
TAP	64	192	2
TAP	64	192	5
BRK	65	0	1
BRK	65	0	6
TAP	66	0	1
TAP	66	192	1
TAP	67	0	2
TAP	67	192	2
TAP	68	0	3
TAP	68	192	3
TAP	69	0	4
TAP	69	192	4
TAP	70	0	5
TAP	70	192	5
TAP	71	0	6
TAP	71	192	6
TAP	72	0	7
TAP	72	96	7
TAP	72	192	0
TAP	72	288	0
TAP	73	0	0
TAP	73	0	7
TAP	74	0	6
TAP	74	192	6
TAP	75	0	5
TAP	75	192	5
TAP	76	0	4
TAP	76	192	4
TAP	77	0	3
TAP	77	192	3
TAP	78	0	2
TAP	78	192	2
TAP	79	0	1
TAP	79	192	1
TAP	80	0	0
TAP	80	96	0
TAP	80	192	7
TAP	80	288	7
TAP	81	0	0
TAP	81	0	7
STR	82	0	0
SI_	82	0	0	96	288	3
STR	84	0	7
SI_	84	0	7	96	288	4
STR	86	0	0
SI_	86	0	0	96	288	3
STR	88	0	7
SI_	88	0	7	96	288	4
TAP	90	0	2
TAP	90	0	3
TAP	92	0	4
TAP	92	0	5
TAP	94	0	0
TAP	94	0	1
TAP	95	0	6
TAP	95	0	7
TAP	96	0	2
TAP	96	0	5
TAP	96	192	1
TAP	96	192	6
HLD	97	0	0	192
HLD	97	0	7	192
TAP	98	0	1
TAP	98	192	1
TAP	99	0	2
TAP	99	96	2
TAP	99	192	2
TAP	100	0	3
TAP	100	192	3
TAP	101	0	4
TAP	101	96	4
TAP	101	192	4
TAP	102	0	5
TAP	102	192	5
TAP	103	0	6
TAP	103	96	6
TAP	103	192	6
TAP	104	0	7
TAP	104	96	7
TAP	104	192	7
HLD	105	0	0	192
TAP	106	0	7
TAP	106	192	7
TAP	107	0	6
TAP	107	96	6
TAP	107	192	6
TAP	108	0	5
TAP	108	192	5
TAP	109	0	4
TAP	109	96	4
TAP	109	192	4
TAP	110	0	3
TAP	110	192	3
TAP	111	0	2
TAP	111	96	2
TAP	111	192	2
TAP	112	0	1
TAP	112	96	1
TAP	112	192	1
HLD	113	0	0	192
TAP	114	0	0
TAP	114	96	0
TAP	114	192	1
TAP	115	0	2
TAP	115	96	2
TAP	115	192	3
TAP	116	0	5
TAP	116	96	5
TAP	116	192	4
TAP	117	0	7
TAP	117	96	7
TAP	117	192	6
TAP	118	0	5
TAP	118	96	5
TAP	118	192	4
TAP	119	0	2
TAP	119	96	2
TAP	119	192	3
TAP	120	0	0
TAP	120	96	0
TAP	120	192	1
TAP	121	0	0
TAP	121	0	7
TAP	121	96	0
TAP	121	96	7
TAP	121	192	0
TAP	121	192	7
TAP	122	0	6
TAP	122	96	6
TAP	122	192	6
TAP	122	192	7
TAP	123	0	5
TAP	123	96	5
TAP	123	192	4
TAP	123	192	5
TAP	124	0	2
TAP	124	96	2
TAP	124	192	2
TAP	124	192	3
TAP	125	0	1
TAP	125	96	1
TAP	125	192	0
TAP	125	192	1
TAP	126	0	2
TAP	126	96	2
TAP	126	192	2
TAP	126	192	3
TAP	127	0	5
TAP	127	96	5
TAP	127	192	4
TAP	127	192	5
TAP	128	0	6
TAP	128	0	7
TAP	128	192	0
TAP	128	192	1
HLD	129	0	0	192
HLD	129	0	7	192
BRK	130	0	1
BRK	130	0	6

T_REC_TAP	197
T_REC_BRK	4
T_REC_XTP	0
T_REC_HLD	21
T_REC_XHO	0
T_REC_STR	12
T_REC_BST	0
T_REC_XST	0
T_REC_TTP	0
T_REC_THO	0
T_REC_SLD	12
T_REC_ALL	246
T_NUM_TAP	209
T_NUM_BRK	4
T_NUM_HLD	21
T_NUM_SLD	12
T_NUM_ALL	246
T_JUDGE_TAP	213
T_JUDGE_HLD	50
T_JUDGE_SLD	12
T_JUDGE_ALL	275
TTM_EACHPAIRS	34
TTM_SCR_TAP	104500
TTM_SCR_BRK	10400
TTM_SCR_HLD	21000
TTM_SCR_SLD	18000
TTM_SCR_ALL	153900
TTM_SCR_S	148900
TTM_SCR_SS	153500
TTM_RAT_ACV	10026

