VERSION	0.00.00	1.03.00
FES_MODE	0
BPM_DEF	180.000	180.000	180.000	180.000
MET_DEF	4	4
RESOLUTION	384
CLK_DEF	384
COMPATIBLE_CODE	MA2

BPM	0	0	180.000
MET	0	0	4	4

TAP	1	0	0
TAP	1	12	1
TAP	1	24	2
TAP	1	36	3
TAP	1	48	4
TAP	1	60	5
TAP	1	72	6
TAP	1	84	7
TAP	1	96	0
TAP	1	144	0
STR	1	192	1
SI_	1	192	1	96	48	4
STR	1	192	5
SI_	1	192	5	96	48	0
BRK	1	288	1
BRK	1	288	5
TAP	2	0	5
TAP	2	48	5
TAP	2	96	4
TAP	2	144	5
TAP	2	192	2
TAP	2	240	2
TAP	2	288	3
TAP	2	336	2
TAP	3	0	5
TAP	3	48	5
TAP	3	96	4
TAP	3	144	5
STR	3	192	3
SI_	3	192	3	96	48	1
SI_	3	192	3	96	48	6
HLD	4	0	0	72
HLD	4	72	1	72
TAP	4	144	2
STR	4	192	2
SCR	4	192	2	96	48	5
TAP	4	288	2
TAP	5	0	6
TAP	5	0	7
TAP	5	48	0
TAP	5	48	5
TAP	5	96	2
STR	5	96	3
SCL	5	96	3	96	48	0
STR	5	192	3
SCR	5	192	3	96	48	6
TAP	5	288	3
TAP	6	0	1
TAP	6	48	1
TAP	6	96	3
TAP	6	144	1
TAP	6	192	6
TAP	6	240	6
TAP	6	288	4
TAP	6	336	6
TAP	7	0	1
TAP	7	48	1
TAP	7	96	3
TAP	7	144	1
STR	7	192	4
SI_	7	192	4	96	48	1
SI_	7	192	4	96	48	6
HLD	8	0	7	72
HLD	8	72	6	72
TAP	8	144	5
STR	8	192	5
SCL	8	192	5	96	48	2
TAP	8	288	5
TAP	9	0	0
TAP	9	0	1
TAP	9	48	2
TAP	9	48	7
STR	9	96	3
SI_	9	96	3	96	48	7
STR	9	96	4
SI_	9	96	4	96	48	6
STR	9	192	3
SI_	9	192	3	96	48	1
STR	9	192	4
SI_	9	192	4	96	48	0
TAP	9	288	3
TAP	9	288	4
HLD	10	0	7	192
HLD	10	192	0	96
HLD	10	288	1	96
STR	11	0	2
SCR	11	0	2	96	96	5
TAP	11	96	7
STR	11	192	6
SCR	11	192	6	96	96	1
TAP	11	288	3
STR	12	0	2
SCL	12	0	2	96	384	3
TAP	13	192	3
TAP	13	192	4
TAP	13	288	2
TAP	13	288	5
STR	14	0	1
SCR	14	0	1	96	96	4
TAP	14	96	6
STR	14	192	5
SCR	14	192	5	96	96	0
TAP	14	288	3
STR	15	0	1
SCR	15	0	1	96	96	4
TAP	15	96	7
HLD	15	192	6	96
HLD	15	288	5	96
STR	16	0	4
SCL	16	0	4	96	384	5
TAP	17	192	3
TAP	17	192	4
TAP	17	288	2
TAP	17	288	5
TAP	18	0	3
TAP	18	0	4
TAP	18	96	4
TAP	18	144	3
HLD	18	192	1	96
TAP	18	288	2
HLD	18	336	0	96
TAP	19	48	7
TAP	19	96	6
HLD	19	144	4	96
TAP	19	240	2
STR	19	288	3
SI_	19	288	3	96	48	7
TAP	19	336	3
STR	20	0	5
SI_	20	0	5	96	48	0
STR	20	96	2
SI_	20	96	2	96	48	6
STR	20	192	4
SI_	20	192	4	96	48	0
TAP	20	288	1
HLD	20	336	1	96
TAP	21	48	0
TAP	21	96	2
TAP	21	144	4
HLD	21	192	6	96
TAP	21	288	1
TAP	22	0	3
TAP	22	0	4
TAP	22	96	3
TAP	22	144	4
HLD	22	192	6	96
TAP	22	288	5
HLD	22	336	7	96
TAP	23	48	2
TAP	23	96	1
HLD	23	144	0	144
TAP	23	288	4
HLD	24	0	5	96
TAP	24	96	4
HLD	24	144	1	96
HLD	24	240	3	96
HLD	24	336	4	96
TAP	25	48	7
TAP	25	96	6
STR	25	144	5
SI_	25	144	5	96	48	1
TAP	25	240	7
BRK	25	288	7
STR	26	0	6
SI_	26	0	6	96	48	2
TAP	26	96	0
TAP	26	144	0
STR	26	192	0
SI_	26	192	0	96	48	4
TAP	26	288	6
HLD	26	336	6	96
TAP	27	48	5
TAP	27	96	4
TAP	27	144	3
STR	27	192	2
SI_	27	192	2	96	48	6
TAP	27	288	2
HLD	28	0	5	72
HLD	28	72	4	72
TAP	28	144	3
TAP	28	192	3
TAP	28	240	2
TAP	28	288	1
HLD	28	336	1	96
TAP	29	48	2
TAP	29	96	2
STR	29	192	6
SI_	29	192	6	96	48	2
STR	29	192	7
SI_	29	192	7	96	48	3
TAP	29	288	6
TAP	29	288	7
STR	30	0	1
SI_	30	0	1	96	48	5
TAP	30	96	7
TAP	30	144	7
STR	30	192	7
SI_	30	192	7	96	48	3
TAP	30	288	1
HLD	30	336	1	96
TAP	31	48	2
TAP	31	96	3
TAP	31	144	4
STR	31	192	5
SI_	31	192	5	96	48	1
TAP	31	288	5
HLD	32	0	2	96
TAP	32	96	4
HLD	32	144	4	96
HLD	32	240	5	96
HLD	32	336	7	96
TAP	33	48	0
TAP	33	96	3
TAP	33	144	4
TAP	33	192	4
BRK	33	288	0
BRK	33	288	6
STR	34	0	2
SI_	34	0	2	96	48	6
TAP	34	96	4
TAP	34	144	4
STR	34	192	4
SI_	34	192	4	96	48	0
TAP	34	288	2
HLD	34	336	2	96
TAP	35	48	1
TAP	35	96	0
HLD	35	144	7	96
TAP	35	240	6
TAP	35	288	5
TAP	35	336	4
HLD	36	0	3	96
HLD	36	96	1	96
HLD	36	192	7	96
TAP	36	288	5
HLD	36	336	5	96
TAP	37	48	6
TAP	37	96	6
STR	37	192	2
SI_	37	192	2	96	48	6
STR	37	192	3
SI_	37	192	3	96	48	7
TAP	37	288	2
TAP	37	288	3
STR	38	0	5
SI_	38	0	5	96	48	1
TAP	38	96	3
TAP	38	144	3
STR	38	192	3
SI_	38	192	3	96	48	7
TAP	38	288	5
HLD	38	336	5	96
TAP	39	48	6
TAP	39	96	7
TAP	39	144	0
STR	39	192	1
SI_	39	192	1	96	48	5
TAP	39	288	1
HLD	40	0	6	96
TAP	40	96	7
HLD	40	144	7	96
HLD	40	240	1	96
HLD	40	336	3	96
TAP	41	48	2
STR	41	96	4
SI_	41	96	4	96	48	0
TAP	41	144	4
BRK	41	288	1
BRK	41	288	7
STR	42	0	2
SCR	42	0	2	96	48	5
TAP	42	48	3
TAP	42	96	2
TAP	42	144	7
STR	42	192	6
SCL	42	192	6	96	48	3
TAP	42	240	5
TAP	42	288	6
TAP	42	336	0
STR	43	0	1
SCR	43	0	1	96	48	4
TAP	43	48	2
TAP	43	96	1
TAP	43	144	6
STR	43	192	5
SCL	43	192	5	96	48	2
TAP	43	240	4
TAP	43	288	5
TAP	43	336	0
STR	44	0	1
SCR	44	0	1	96	48	4
TAP	44	48	2
TAP	44	96	1
TAP	44	144	7
STR	44	192	6
SCR	44	192	6	96	48	1
TAP	44	240	5
TAP	44	288	6
TAP	44	336	3
HLD	45	0	3	96
TAP	45	96	4
TAP	45	144	1
TAP	45	144	6
TAP	45	240	4
TAP	45	240	6
TAP	45	312	1
TAP	45	312	3
STR	46	0	5
SCL	46	0	5	96	48	2
TAP	46	48	4
TAP	46	96	5
TAP	46	144	0
STR	46	192	1
SCR	46	192	1	96	48	4
TAP	46	240	2
TAP	46	288	1
TAP	46	336	7
STR	47	0	6
SCL	47	0	6	96	48	3
TAP	47	48	5
TAP	47	96	6
TAP	47	144	0
STR	47	192	1
SCR	47	192	1	96	48	4
TAP	47	240	2
TAP	47	288	1
TAP	47	336	6
STR	48	0	5
SCL	48	0	5	96	48	2
TAP	48	48	4
TAP	48	96	5
TAP	48	144	0
STR	48	192	1
SCL	48	192	1	96	48	6
TAP	48	240	2
TAP	48	288	1
TAP	48	336	4
STR	49	0	4
SF_	49	0	4	96	48	0
BRK	49	192	0
BRK	49	192	6
BRK	49	288	1
BRK	49	288	7
TAP	50	0	5
TAP	50	24	4
TAP	50	48	5
TAP	50	72	4
STR	50	96	6
SXL	50	96	6	96	144	1
TAP	50	144	6
TAP	50	192	0
TAP	51	0	2
TAP	51	24	3
TAP	51	48	2
TAP	51	72	3
TAP	51	96	1
TAP	51	144	1
TAP	51	192	2
TAP	51	192	3
TAP	51	240	3
TAP	51	240	5
TAP	51	288	1
TAP	51	288	4
HLD	52	0	3	48
HLD	52	0	5	48
HLD	52	72	1	48
HLD	52	72	4	48
TAP	52	144	2
TAP	52	144	6
TAP	52	192	2
STR	52	192	6
SI_	52	192	6	96	48	2
TAP	52	288	0
TAP	53	0	5
TAP	53	48	4
STR	53	96	3
SI_	53	96	3	96	48	1
STR	53	96	4
SI_	53	96	4	96	48	0
STR	53	192	3
SI_	53	192	3	96	48	7
STR	53	192	4
SI_	53	192	4	96	48	6
TAP	53	288	3
TAP	53	288	4
TAP	54	0	6
TAP	54	24	7
TAP	54	48	6
TAP	54	72	7
TAP	54	96	5
TAP	54	144	4
TAP	54	144	6
TAP	54	192	1
TAP	54	216	0
TAP	54	240	1
TAP	54	264	0
TAP	54	288	2
TAP	54	336	1
TAP	54	336	3
STR	55	0	4
SI_	55	0	4	96	48	0
TAP	55	48	4
STR	55	96	3
SI_	55	96	3	96	48	7
TAP	55	144	3
TAP	55	192	4
TAP	55	240	4
TAP	55	288	2
TAP	55	288	5
TAP	55	336	3
TAP	55	336	4
TAP	56	0	2
TAP	56	24	3
TAP	56	48	1
TAP	56	72	4
TAP	56	96	0
TAP	56	120	5
TAP	56	144	7
TAP	56	168	6
TAP	56	192	1
TAP	56	216	0
TAP	56	240	2
TAP	56	264	7
TAP	56	288	3
TAP	56	312	6
TAP	56	336	4
TAP	56	360	5
STR	57	0	3
SF_	57	0	3	96	48	7
BRK	57	192	1
BRK	57	192	7
BRK	57	288	0
BRK	57	288	6
STR	58	0	6
SI_	58	0	6	96	48	4
TAP	58	64	6
STR	58	96	7
SI_	58	96	7	96	48	3
TAP	58	160	7
STR	58	192	6
SI_	58	192	6	96	48	2
TAP	58	256	6
STR	58	288	7
SI_	58	288	7	96	48	1
TAP	58	352	7
STR	59	0	6
SI_	59	0	6	96	48	4
TAP	59	64	6
STR	59	96	7
SI_	59	96	7	96	48	3
TAP	59	160	7
STR	59	192	6
SI_	59	192	6	96	48	2
TAP	59	256	6
TAP	59	288	7
STR	60	0	1
SI_	60	0	1	96	48	3
TAP	60	64	1
STR	60	96	0
SI_	60	96	0	96	48	4
TAP	60	160	0
STR	60	192	1
SI_	60	192	1	96	48	5
TAP	60	256	1
STR	60	288	0
SI_	60	288	0	96	48	6
TAP	60	352	0
STR	61	0	1
SI_	61	0	1	96	48	3
TAP	61	64	1
STR	61	96	0
SI_	61	96	0	96	48	4
TAP	61	160	0
STR	61	192	1
SI_	61	192	1	96	48	5
TAP	61	256	1
TAP	61	288	0
STR	62	0	2
SI_	62	0	2	96	48	0
TAP	62	64	2
STR	62	96	3
SI_	62	96	3	96	48	7
TAP	62	160	3
STR	62	192	2
SI_	62	192	2	96	48	6
TAP	62	256	2
STR	62	288	3
SI_	62	288	3	96	48	5
TAP	62	352	3
STR	63	0	2
SI_	63	0	2	96	48	0
TAP	63	64	2
STR	63	96	3
SI_	63	96	3	96	48	7
TAP	63	160	3
STR	63	192	2
SI_	63	192	2	96	48	6
TAP	63	256	2
TAP	63	288	3
STR	64	0	5
SI_	64	0	5	96	48	7
TAP	64	64	5
STR	64	96	4
SI_	64	96	4	96	48	0
TAP	64	160	4
STR	64	192	5
SI_	64	192	5	96	48	1
TAP	64	256	5
STR	64	288	4
SI_	64	288	4	96	48	2
TAP	64	352	4
STR	65	0	5
SI_	65	0	5	96	48	7
TAP	65	64	5
STR	65	96	4
SI_	65	96	4	96	48	0
TAP	65	160	4
STR	65	192	5
SI_	65	192	5	96	48	1
TAP	65	256	5
TAP	65	288	4
TAP	66	0	1
TAP	66	0	3
TAP	66	64	2
TAP	66	96	1
TAP	66	96	3
TAP	66	160	4
TAP	66	192	3
TAP	66	192	5
TAP	66	256	2
TAP	66	288	1
TAP	66	288	3
TAP	66	352	5
TAP	67	0	4
TAP	67	0	6
TAP	67	64	5
TAP	67	96	4
TAP	67	96	6
TAP	67	160	3
TAP	67	192	2
TAP	67	192	4
TAP	67	256	5
TAP	67	288	4
TAP	67	288	6
TAP	67	352	2
TAP	68	0	1
TAP	68	0	3
TAP	68	64	2
TAP	68	96	1
TAP	68	96	3
TAP	68	160	4
TAP	68	192	3
TAP	68	192	5
TAP	68	256	2
TAP	68	288	1
TAP	68	288	3
TAP	68	352	5
TAP	69	0	4
TAP	69	0	6
TAP	69	64	5
TAP	69	96	4
TAP	69	96	6
TAP	69	160	3
TAP	69	192	2
TAP	69	192	4
TAP	69	256	5
TAP	69	288	4
TAP	69	288	6
TAP	69	352	2
TAP	70	0	3
TAP	70	32	2
TAP	70	64	3
TAP	70	96	1
TAP	70	96	4
TAP	70	160	5
TAP	70	192	4
TAP	70	224	5
TAP	70	256	4
TAP	70	288	3
TAP	70	288	6
TAP	70	352	1
TAP	71	0	0
TAP	71	32	1
TAP	71	64	0
TAP	71	96	2
TAP	71	96	7
TAP	71	160	6
TAP	71	192	7
TAP	71	224	6
TAP	71	256	7
TAP	71	288	0
TAP	71	288	5
TAP	71	352	2
TAP	72	0	2
TAP	72	32	3
TAP	72	64	1
TAP	72	96	5
TAP	72	128	4
TAP	72	160	6
TAP	72	192	1
TAP	72	224	0
TAP	72	256	2
TAP	72	288	6
TAP	72	320	7
TAP	72	352	5
TAP	73	0	3
TAP	73	0	4
TAP	73	64	2
TAP	73	64	7
TAP	73	128	0
TAP	73	128	4
BRK	73	192	1
BRK	73	192	6
TAP	73	288	2
TAP	73	312	3
TAP	73	336	1
TAP	73	360	4
STR	74	0	0
SV_	74	0	0	96	48	5
TAP	74	48	6
TAP	74	96	0
TAP	74	144	6
STR	74	192	5
SI_	74	192	5	96	48	1
TAP	74	240	6
TAP	74	288	5
TAP	74	336	6
STR	75	0	1
SI_	75	0	1	96	48	4
TAP	75	48	6
TAP	75	96	1
TAP	75	144	6
STR	75	192	4
SI_	75	192	4	96	48	0
TAP	75	240	6
TAP	75	288	4
STR	76	0	0
SI_	76	0	0	96	48	4
TAP	76	96	0
STR	76	96	7
SI_	76	96	7	96	48	3
STR	76	192	1
SI_	76	192	1	96	48	4
TAP	76	192	7
TAP	76	288	1
TAP	76	288	5
STR	76	336	5
SXL	76	336	5	96	144	0
STR	77	192	3
SI_	77	192	3	96	48	0
SI_	77	192	3	96	48	6
BRK	77	288	3
STR	78	0	7
SV_	78	0	7	96	48	2
TAP	78	48	1
TAP	78	96	7
TAP	78	144	1
STR	78	192	2
SI_	78	192	2	96	48	6
TAP	78	240	1
TAP	78	288	2
TAP	78	336	1
STR	79	0	6
SI_	79	0	6	96	48	3
TAP	79	48	1
TAP	79	96	6
TAP	79	144	1
STR	79	192	3
SI_	79	192	3	96	48	7
TAP	79	240	1
TAP	79	288	3
STR	80	0	7
SI_	80	0	7	96	48	3
TAP	80	96	0
TAP	80	96	7
STR	80	144	0
SI_	80	144	0	96	48	5
TAP	80	240	0
STR	80	240	6
SI_	80	240	6	96	48	3
STR	80	336	2
SXR	80	336	2	96	144	7
TAP	80	336	6
STR	81	192	4
SI_	81	192	4	96	48	1
SI_	81	192	4	96	48	7
BRK	81	288	4
STR	82	0	2
SI_	82	0	2	96	48	7
TAP	82	48	3
TAP	82	96	2
TAP	82	144	4
STR	82	192	5
SI_	82	192	5	96	48	0
TAP	82	240	4
TAP	82	288	5
TAP	82	336	3
TAP	83	0	2
TAP	83	0	4
TAP	83	48	5
TAP	83	96	4
TAP	83	96	6
TAP	83	144	2
STR	83	192	1
SI_	83	192	1	96	48	4
STR	83	192	3
SI_	83	192	3	96	48	7
BRK	83	288	1
BRK	83	288	3
STR	84	0	5
SI_	84	0	5	96	48	0
TAP	84	48	4
TAP	84	96	5
TAP	84	144	3
STR	84	192	2
SI_	84	192	2	96	48	7
TAP	84	240	3
TAP	84	288	2
TAP	84	336	4
TAP	85	0	3
TAP	85	0	5
TAP	85	48	2
TAP	85	96	1
TAP	85	96	3
TAP	85	144	5
STR	85	192	4
SI_	85	192	4	96	48	0
STR	85	192	6
SI_	85	192	6	96	48	3
BRK	85	288	4
BRK	85	288	6
TAP	86	0	2
TAP	86	48	2
TAP	86	48	3
TAP	86	96	5
TAP	86	144	4
TAP	86	144	5
TAP	86	192	2
TAP	86	240	1
TAP	86	240	3
TAP	86	288	5
TAP	86	336	4
TAP	86	336	6
TAP	87	0	1
TAP	87	48	0
TAP	87	48	2
TAP	87	96	6
TAP	87	144	5
TAP	87	144	7
TAP	87	192	1
TAP	87	240	0
TAP	87	240	1
TAP	87	288	6
TAP	87	336	6
TAP	87	336	7
TAP	88	0	1
TAP	88	24	0
TAP	88	48	2
TAP	88	72	7
TAP	88	96	3
TAP	88	120	6
TAP	88	144	4
TAP	88	168	5
TAP	88	192	3
TAP	88	204	2
TAP	88	216	1
TAP	88	228	0
TAP	88	240	7
TAP	88	252	6
TAP	88	264	5
TAP	88	276	4
TAP	88	288	3
TAP	88	300	2
TAP	88	312	1
TAP	88	324	0
HLD	88	336	7	96
TAP	89	48	6
TAP	89	96	5
TAP	89	144	4
STR	89	192	3
SI_	89	192	3	96	48	7
STR	89	192	4
SI_	89	192	4	96	48	0
TAP	89	288	3
TAP	89	288	4
BRK	90	0	1
BRK	90	0	6

T_REC_TAP	475
T_REC_BRK	25
T_REC_XTP	0
T_REC_HLD	47
T_REC_XHO	0
T_REC_STR	118
T_REC_BST	0
T_REC_XST	0
T_REC_TTP	0
T_REC_THO	0
T_REC_SLD	122
T_REC_ALL	787
T_NUM_TAP	593
T_NUM_BRK	25
T_NUM_HLD	47
T_NUM_SLD	122
T_NUM_ALL	787
T_JUDGE_TAP	618
T_JUDGE_HLD	93
T_JUDGE_SLD	122
T_JUDGE_ALL	833
TTM_EACHPAIRS	92
TTM_SCR_TAP	296500
TTM_SCR_BRK	65000
TTM_SCR_HLD	47000
TTM_SCR_SLD	183000
TTM_SCR_ALL	591500
TTM_SCR_S	571350
TTM_SCR_SS	589000
TTM_RAT_ACV	10042

