VERSION	0.00.00	1.03.00
FES_MODE	0
BPM_DEF	180.000	180.000	180.000	180.000
MET_DEF	4	4
RESOLUTION	384
CLK_DEF	384
COMPATIBLE_CODE	MA2

BPM	0	0	180.000
MET	0	0	4	4

TAP	1	0	0
TAP	1	24	2
TAP	1	48	4
TAP	1	72	6
TAP	1	96	0
TAP	1	144	0
BRK	1	192	0
BRK	1	192	7
STR	2	0	0
SI_	2	0	0	96	48	5
STR	2	192	1
SI_	2	192	1	96	48	4
STR	3	0	3
SI_	3	0	3	96	48	6
STR	3	192	2
SI_	3	192	2	96	48	7
TAP	4	0	7
TAP	4	96	7
TAP	4	192	6
TAP	4	288	6
TAP	5	0	5
TAP	5	96	5
TAP	5	192	4
TAP	5	288	4
TAP	6	0	0
TAP	6	0	2
TAP	6	48	1
TAP	6	96	0
TAP	6	96	2
TAP	6	192	0
TAP	6	192	6
TAP	6	240	7
TAP	6	288	0
TAP	6	288	6
TAP	7	0	1
TAP	7	0	7
TAP	7	48	0
TAP	7	96	1
TAP	7	96	7
TAP	7	192	5
TAP	7	192	7
TAP	7	240	6
TAP	7	288	5
TAP	7	288	7
TAP	8	0	0
TAP	8	48	1
TAP	8	96	2
TAP	8	144	3
TAP	8	192	4
TAP	8	240	5
TAP	8	288	6
TAP	8	336	7
TAP	9	0	0
TAP	9	0	4
TAP	9	48	3
TAP	9	48	7
TAP	9	96	2
TAP	9	96	6
TAP	9	144	1
TAP	9	144	5
BRK	9	192	0
BRK	9	192	4
BRK	9	288	2
BRK	9	288	6
STR	10	0	7
SI_	10	0	7	96	96	3
HLD	10	96	0	144
TAP	10	240	3
HLD	10	336	4	144
HLD	11	96	2	96
TAP	11	192	0
TAP	11	288	0
TAP	12	0	7
HLD	12	96	7	144
TAP	12	240	6
HLD	12	336	4	144
HLD	13	96	2	96
TAP	13	192	0
TAP	13	288	0
STR	14	0	0
SI_	14	0	0	96	96	4
HLD	14	96	7	144
TAP	14	240	4
HLD	14	336	3	144
HLD	15	96	5	96
TAP	15	192	7
TAP	15	288	7
TAP	16	0	0
HLD	16	96	0	144
TAP	16	240	1
HLD	16	336	3	144
HLD	17	96	5	96
TAP	17	192	6
BRK	17	288	1
BRK	17	288	6
TAP	18	0	0
TAP	18	0	7
TAP	18	96	1
TAP	18	192	3
TAP	18	288	1
TAP	19	0	2
TAP	19	96	0
TAP	19	192	7
TAP	19	288	6
TAP	20	0	5
TAP	20	96	3
TAP	20	192	4
TAP	20	288	2
TAP	21	0	1
TAP	21	96	3
TAP	21	192	5
TAP	21	288	7
TAP	22	0	0
TAP	22	48	0
TAP	22	96	0
TAP	22	192	2
TAP	22	240	2
TAP	22	288	2
TAP	23	0	0
TAP	23	48	0
TAP	23	96	0
TAP	23	192	6
TAP	23	240	6
TAP	23	288	6
TAP	24	0	7
TAP	24	48	0
TAP	24	96	1
TAP	24	144	2
TAP	24	192	3
TAP	24	240	4
TAP	24	288	5
TAP	24	336	6
TAP	25	0	7
TAP	25	24	6
TAP	25	48	5
TAP	25	72	4
TAP	25	96	3
TAP	25	120	2
TAP	25	144	1
TAP	25	168	0
TAP	25	192	7
TAP	25	240	6
TAP	25	240	7
BRK	25	288	0
BRK	25	288	1
STR	26	0	7
SI_	26	0	7	96	48	2
TAP	26	144	6
STR	26	192	6
SI_	26	192	6	96	48	3
HLD	26	336	0	96
TAP	27	48	1
TAP	27	96	0
HLD	27	144	7	144
BRK	27	288	0
STR	28	0	7
SI_	28	0	7	96	48	3
STR	28	96	6
SI_	28	96	6	96	48	2
STR	28	192	5
SI_	28	192	5	96	48	1
HLD	28	336	0	96
TAP	29	48	1
TAP	29	96	3
TAP	29	144	5
TAP	29	192	6
TAP	29	192	7
BRK	29	288	0
BRK	29	288	7
STR	30	0	0
SI_	30	0	0	96	48	5
TAP	30	144	1
STR	30	192	1
SI_	30	192	1	96	48	4
HLD	30	336	5	96
TAP	31	48	6
TAP	31	96	7
HLD	31	144	0	144
BRK	31	288	7
STR	32	0	1
SCR	32	0	1	96	48	4
HLD	32	144	7	96
HLD	32	240	5	96
TAP	32	336	3
TAP	33	48	4
TAP	33	48	5
TAP	33	96	5
TAP	33	96	6
HLD	33	144	0	96
HLD	33	144	7	96
BRK	33	288	0
BRK	33	288	7
STR	34	0	7
SI_	34	0	7	96	48	2
TAP	34	144	3
STR	34	192	3
SI_	34	192	3	96	48	6
HLD	34	336	5	96
TAP	35	48	4
TAP	35	96	3
HLD	35	144	2	144
BRK	35	288	1
STR	36	0	2
SCR	36	0	2	96	48	5
STR	36	96	7
SCR	36	96	7	96	48	2
STR	36	192	5
SCR	36	192	5	96	48	0
HLD	36	336	1	96
TAP	37	48	2
TAP	37	96	4
TAP	37	144	6
TAP	37	192	0
TAP	37	192	7
BRK	37	288	0
BRK	37	288	1
STR	38	0	0
SI_	38	0	0	96	48	5
TAP	38	144	4
STR	38	192	4
SI_	38	192	4	96	48	1
HLD	38	336	2	96
TAP	39	48	3
TAP	39	96	5
HLD	39	144	6	144
HLD	39	144	7	144
STR	40	0	5
SI_	40	0	5	96	48	1
STR	40	144	4
SI_	40	144	4	96	48	0
HLD	40	336	7	96
TAP	41	48	6
TAP	41	96	5
HLD	41	144	4	144
TAP	42	0	6
TAP	42	48	0
TAP	42	96	7
TAP	42	144	1
TAP	42	192	0
TAP	42	240	2
TAP	42	288	1
TAP	42	336	3
TAP	43	0	2
TAP	43	48	4
TAP	43	96	3
TAP	43	144	5
TAP	43	192	4
TAP	43	240	6
TAP	43	288	5
TAP	43	336	7
TAP	44	0	5
TAP	44	48	6
TAP	44	96	4
TAP	44	144	5
TAP	44	192	3
TAP	44	240	4
TAP	44	288	2
TAP	44	336	3
STR	45	0	0
SI_	45	0	0	96	48	3
BRK	45	144	7
TAP	46	0	2
TAP	46	48	4
TAP	46	96	0
TAP	46	144	3
TAP	46	192	5
TAP	46	240	1
TAP	46	288	7
TAP	46	336	2
TAP	47	0	5
TAP	47	48	0
TAP	47	96	6
TAP	47	144	2
TAP	47	192	4
TAP	47	240	7
TAP	47	288	5
TAP	47	336	6
TAP	48	0	1
TAP	48	48	4
TAP	48	96	0
TAP	48	144	6
TAP	48	192	3
TAP	48	240	6
TAP	48	288	1
TAP	48	336	5
TAP	49	0	0
TAP	49	48	6
HLD	49	72	7	72
TAP	49	144	4
BRK	49	192	1
BRK	49	192	3
BRK	49	288	2
BRK	49	288	7
TAP	50	0	3
TAP	50	24	4
TAP	50	48	5
TAP	50	72	6
TAP	50	96	7
TAP	50	144	7
BRK	50	192	7
TAP	51	0	4
TAP	51	24	3
TAP	51	48	2
TAP	51	72	1
TAP	51	96	0
TAP	51	144	0
TAP	51	192	0
TAP	51	192	6
BRK	51	240	6
BRK	51	240	7
BRK	51	288	0
BRK	51	288	7
TAP	52	0	1
TAP	52	48	4
TAP	52	96	2
TAP	52	144	3
TAP	52	192	2
TAP	52	240	5
TAP	52	288	3
TAP	52	336	4
TAP	53	0	3
TAP	53	48	6
HLD	53	72	5	72
TAP	53	144	3
BRK	53	192	4
BRK	53	192	5
BRK	53	288	6
BRK	53	288	7
TAP	54	0	5
TAP	54	24	4
TAP	54	48	3
TAP	54	72	2
TAP	54	96	1
BRK	54	144	1
TAP	54	192	3
TAP	54	216	4
TAP	54	240	5
TAP	54	264	6
TAP	54	288	7
BRK	54	336	7
TAP	55	0	4
TAP	55	24	3
TAP	55	48	2
TAP	55	72	1
TAP	55	96	0
TAP	55	120	7
TAP	55	144	6
TAP	55	168	5
TAP	55	192	4
TAP	55	216	3
TAP	55	240	2
TAP	55	264	1
TAP	55	288	0
BRK	55	336	0
TAP	56	0	1
TAP	56	48	2
TAP	56	96	3
TAP	56	144	4
TAP	56	192	5
TAP	56	240	6
TAP	56	288	7
BRK	56	336	7
TAP	57	0	7
TAP	57	24	6
TAP	57	48	5
TAP	57	72	4
TAP	57	96	3
TAP	57	120	2
TAP	57	144	1
TAP	57	168	0
BRK	57	192	0
BRK	57	192	7
BRK	57	288	6
BRK	57	288	7
TAP	58	0	0
TAP	58	64	0
TAP	58	96	1
TAP	58	160	1
HLD	58	192	2	96
TAP	58	288	0
TAP	58	352	7
TAP	59	64	7
TAP	59	96	6
HLD	59	160	5	96
TAP	59	256	4
TAP	59	288	3
TAP	59	352	3
TAP	60	0	2
TAP	60	64	4
TAP	60	96	5
TAP	60	160	5
HLD	60	192	6	96
TAP	60	288	7
TAP	60	352	6
TAP	61	64	5
TAP	61	96	5
HLD	61	160	4	128
TAP	61	288	2
TAP	62	0	1
TAP	62	64	1
TAP	62	96	0
TAP	62	160	0
HLD	62	192	7	96
TAP	62	288	0
TAP	62	352	2
TAP	63	64	0
TAP	63	96	7
HLD	63	160	6	128
TAP	63	288	7
HLD	64	0	0	96
TAP	64	96	1
TAP	64	160	2
TAP	64	256	0
TAP	64	352	7
TAP	65	64	6
TAP	65	96	6
HLD	65	160	5	128
TAP	66	0	7
TAP	66	64	0
TAP	66	96	1
TAP	66	160	1
TAP	66	192	2
TAP	66	256	2
TAP	66	288	3
TAP	66	352	3
TAP	67	0	4
TAP	67	64	4
TAP	67	96	5
TAP	67	160	5
TAP	67	192	6
TAP	67	256	6
TAP	67	288	7
TAP	67	352	7
TAP	68	0	0
TAP	68	0	7
TAP	68	64	6
TAP	68	96	5
TAP	68	160	5
TAP	68	192	4
TAP	68	256	4
TAP	68	288	3
TAP	68	352	3
TAP	69	0	2
TAP	69	64	2
TAP	69	96	1
TAP	69	160	1
TAP	69	192	0
TAP	69	224	1
TAP	69	256	0
TAP	69	288	1
TAP	69	352	1
TAP	70	0	2
TAP	70	32	3
TAP	70	64	2
TAP	70	96	3
TAP	70	160	3
TAP	70	192	4
TAP	70	224	5
TAP	70	256	4
TAP	70	288	5
TAP	70	352	5
TAP	71	0	6
TAP	71	32	7
TAP	71	64	6
TAP	71	96	7
TAP	71	160	7
TAP	71	192	0
TAP	71	224	1
TAP	71	256	0
TAP	71	288	1
TAP	71	352	1
TAP	72	0	7
TAP	72	32	6
TAP	72	64	5
TAP	72	96	4
TAP	72	128	3
TAP	72	160	2
TAP	72	192	1
TAP	72	224	0
TAP	72	256	7
TAP	72	288	6
TAP	72	320	5
TAP	72	352	4
BRK	73	0	3
BRK	73	0	7
BRK	73	64	1
BRK	73	64	5
BRK	73	128	2
BRK	73	128	6
BRK	73	192	3
BRK	73	192	7
STR	74	0	7
SI_	74	0	7	96	48	2
TAP	74	144	6
STR	74	192	6
SI_	74	192	6	96	48	3
HLD	74	336	0	96
TAP	75	48	1
TAP	75	96	0
HLD	75	144	7	144
BRK	75	288	0
STR	76	0	7
SI_	76	0	7	96	48	3
STR	76	96	6
SI_	76	96	6	96	48	2
STR	76	192	5
SI_	76	192	5	96	48	1
HLD	76	336	0	96
TAP	77	48	1
TAP	77	96	3
TAP	77	144	5
TAP	77	192	6
TAP	77	192	7
BRK	77	288	0
BRK	77	288	7
STR	78	0	0
SI_	78	0	0	96	48	5
TAP	78	144	1
STR	78	192	1
SI_	78	192	1	96	48	4
HLD	78	336	5	96
TAP	79	48	6
TAP	79	96	7
HLD	79	144	0	144
BRK	79	288	7
STR	80	0	1
SCR	80	0	1	96	48	4
HLD	80	144	7	96
HLD	80	240	5	96
TAP	80	336	3
TAP	81	48	4
TAP	81	48	5
TAP	81	96	5
TAP	81	96	6
HLD	81	144	0	96
HLD	81	144	7	96
BRK	81	288	0
BRK	81	288	7
STR	82	0	7
SI_	82	0	7	96	48	2
TAP	82	144	3
STR	82	192	3
SI_	82	192	3	96	48	6
HLD	82	336	5	96
TAP	83	48	4
TAP	83	96	3
TAP	83	144	2
TAP	83	192	3
TAP	83	216	4
TAP	83	240	5
TAP	83	264	6
BRK	83	288	7
STR	84	0	0
SI_	84	0	0	96	48	4
STR	84	96	7
SI_	84	96	7	96	48	3
STR	84	192	6
SI_	84	192	6	96	48	2
HLD	84	336	1	96
TAP	85	48	2
TAP	85	96	4
TAP	85	144	6
TAP	85	192	5
TAP	85	216	3
TAP	85	240	1
BRK	85	288	0
BRK	85	288	7
TAP	86	0	1
TAP	86	48	1
TAP	86	96	2
TAP	86	144	2
TAP	86	192	3
TAP	86	240	3
TAP	86	288	4
TAP	86	336	4
TAP	87	0	5
TAP	87	48	5
TAP	87	96	6
TAP	87	144	6
TAP	87	192	7
TAP	87	240	7
TAP	87	288	0
TAP	87	336	0
TAP	88	0	7
TAP	88	24	6
TAP	88	48	5
TAP	88	72	4
TAP	88	96	3
TAP	88	120	2
TAP	88	144	1
TAP	88	168	0
TAP	88	192	2
TAP	88	216	3
TAP	88	240	4
TAP	88	264	5
TAP	88	288	6
TAP	88	312	7
TAP	88	336	0
TAP	89	48	2
TAP	89	48	3
TAP	89	96	1
TAP	89	96	2
BRK	89	144	0
BRK	89	144	1
STR	89	288	0
SI_	89	288	0	96	48	3
STR	89	288	7
SI_	89	288	7	96	48	4

T_REC_TAP	420
T_REC_BRK	60
T_REC_XTP	0
T_REC_HLD	50
T_REC_XHO	0
T_REC_STR	39
T_REC_BST	0
T_REC_XST	0
T_REC_TTP	0
T_REC_THO	0
T_REC_SLD	39
T_REC_ALL	608
T_NUM_TAP	459
T_NUM_BRK	60
T_NUM_HLD	50
T_NUM_SLD	39
T_NUM_ALL	608
T_JUDGE_TAP	519
T_JUDGE_HLD	119
T_JUDGE_SLD	39
T_JUDGE_ALL	677
TTM_EACHPAIRS	53
TTM_SCR_TAP	229500
TTM_SCR_BRK	156000
TTM_SCR_HLD	50000
TTM_SCR_SLD	58500
TTM_SCR_ALL	494000
TTM_SCR_S	473400
TTM_SCR_SS	488000
TTM_RAT_ACV	10122

