VERSION	0.00.00	1.03.00
FES_MODE	0
BPM_DEF	180.000	180.000	180.000	180.000
MET_DEF	4	4
RESOLUTION	384
CLK_DEF	384
COMPATIBLE_CODE	MA2

BPM	0	0	180.000
MET	0	0	4	4

TAP	1	0	0
TAP	1	48	7
TAP	1	96	0
TAP	1	144	7
TAP	1	192	0
BRK	1	288	0
BRK	1	288	7
HLD	2	0	7	96
HLD	2	96	6	96
HLD	2	192	5	96
HLD	2	288	4	96
HLD	3	0	3	96
HLD	3	96	2	96
HLD	3	192	1	96
HLD	3	288	0	96
HLD	4	0	7	96
HLD	4	96	5	96
HLD	4	192	3	96
HLD	4	288	1	96
HLD	5	0	6	192
TAP	5	96	5
HLD	5	192	1	96
TAP	5	288	2
TAP	6	0	5
TAP	6	96	4
TAP	6	192	3
TAP	6	288	2
TAP	7	0	1
TAP	7	96	2
TAP	7	192	3
TAP	7	288	4
TAP	8	0	5
TAP	8	48	5
TAP	8	96	4
TAP	8	144	4
TAP	8	192	3
TAP	8	240	3
TAP	8	288	2
TAP	8	336	2
TAP	9	0	3
TAP	9	48	2
TAP	9	96	5
TAP	9	144	4
TAP	9	192	2
TAP	9	192	5
BRK	9	288	0
BRK	9	288	7
HLD	10	0	1	288
TAP	10	192	2
HLD	10	288	6	96
HLD	11	0	5	192
HLD	11	192	0	192
HLD	12	0	3	576
HLD	14	0	7	192
HLD	14	192	6	192
HLD	15	0	5	192
HLD	15	192	1	192
TAP	15	288	0
HLD	16	0	7	672
HLD	18	0	2	288
TAP	18	96	0
TAP	18	192	6
TAP	18	288	4
TAP	19	0	3
TAP	19	96	5
TAP	19	192	7
TAP	19	288	1
HLD	20	0	0	96
HLD	20	96	5	96
HLD	20	192	4	96
HLD	20	288	1	96
TAP	21	0	5
TAP	21	48	4
TAP	21	96	6
TAP	21	144	4
TAP	21	192	5
TAP	21	288	6
TAP	21	288	7
HLD	22	0	5	288
TAP	22	96	7
TAP	22	192	1
TAP	22	288	3
TAP	23	0	4
TAP	23	96	2
TAP	23	192	0
TAP	23	288	6
HLD	24	0	7	96
HLD	24	96	2	96
HLD	24	192	3	96
HLD	24	288	6	96
TAP	25	0	2
TAP	25	48	3
TAP	25	96	1
TAP	25	144	3
STR	25	192	0
SI_	25	192	0	96	48	5
STR	25	192	1
SI_	25	192	1	96	48	4
TAP	26	0	6
TAP	26	0	7
TAP	26	96	2
TAP	26	96	3
TAP	26	192	4
TAP	26	192	5
TAP	26	288	0
TAP	26	288	1
TAP	27	0	6
TAP	27	0	7
TAP	27	96	4
TAP	27	96	5
STR	27	192	2
SI_	27	192	2	96	48	7
STR	27	192	3
SI_	27	192	3	96	48	6
HLD	28	0	1	144
HLD	28	144	2	96
TAP	28	240	3
HLD	28	336	6	96
TAP	29	48	7
TAP	29	96	7
TAP	29	144	0
HLD	29	192	0	96
BRK	29	288	1
TAP	30	0	2
TAP	30	0	7
TAP	30	96	4
TAP	30	96	5
TAP	30	192	1
TAP	30	192	2
TAP	30	288	6
TAP	30	288	7
TAP	31	0	2
TAP	31	0	5
TAP	31	96	3
TAP	31	96	7
STR	31	192	0
SCL	31	192	0	96	48	5
STR	31	192	1
SCR	31	192	1	96	48	4
HLD	32	0	2	96
TAP	32	96	3
HLD	32	144	3	96
HLD	32	240	1	96
HLD	32	336	0	96
TAP	33	48	4
TAP	33	96	3
TAP	33	144	2
TAP	33	288	0
TAP	33	288	7
TAP	34	0	1
TAP	34	48	1
TAP	34	96	3
TAP	34	144	3
TAP	34	192	2
TAP	34	240	2
TAP	34	288	4
TAP	34	336	4
TAP	35	0	3
TAP	35	48	3
TAP	35	96	5
TAP	35	144	5
TAP	35	192	4
TAP	35	240	4
TAP	35	288	6
TAP	35	336	6
HLD	36	0	6	96
HLD	36	96	7	96
HLD	36	192	0	96
TAP	36	288	1
TAP	36	336	1
TAP	37	48	2
TAP	37	96	3
TAP	37	144	4
HLD	37	192	5	96
BRK	37	288	0
TAP	38	0	5
TAP	38	48	5
TAP	38	96	3
TAP	38	144	3
TAP	38	192	4
TAP	38	240	4
TAP	38	288	2
TAP	38	336	2
TAP	39	0	0
TAP	39	48	0
TAP	39	96	1
TAP	39	144	1
TAP	39	192	6
TAP	39	240	6
TAP	39	288	7
TAP	39	336	7
HLD	40	0	5	96
TAP	40	96	4
HLD	40	144	4	96
TAP	40	240	6
HLD	40	336	6	96
TAP	41	48	7
TAP	41	96	0
TAP	41	144	1
TAP	42	0	2
TAP	42	48	2
TAP	42	96	2
TAP	42	144	2
TAP	42	192	5
TAP	42	240	5
TAP	42	288	5
TAP	42	336	5
TAP	43	0	0
TAP	43	48	0
TAP	43	96	2
TAP	43	144	2
TAP	43	192	4
TAP	43	240	4
TAP	43	288	6
TAP	43	336	6
TAP	44	0	7
TAP	44	48	7
TAP	44	96	5
TAP	44	144	5
TAP	44	192	3
TAP	44	240	3
TAP	44	288	1
TAP	44	336	1
HLD	45	0	0	144
BRK	45	144	7
TAP	46	0	1
TAP	46	48	0
TAP	46	96	2
TAP	46	144	0
TAP	46	192	1
TAP	46	240	7
TAP	46	288	0
TAP	46	336	7
TAP	47	0	0
TAP	47	48	6
TAP	47	96	1
TAP	47	144	7
TAP	47	192	0
TAP	47	240	6
TAP	47	288	7
TAP	47	336	6
TAP	48	0	2
TAP	48	48	3
TAP	48	96	4
TAP	48	144	5
TAP	48	192	5
TAP	48	240	4
TAP	48	288	3
TAP	48	336	2
TAP	49	0	4
TAP	49	0	5
TAP	49	96	2
TAP	49	96	3
TAP	49	192	6
TAP	49	192	7
TAP	49	288	0
TAP	49	288	1
TAP	50	0	2
TAP	50	96	1
TAP	50	192	0
TAP	50	288	7
TAP	51	0	5
TAP	51	96	6
TAP	51	192	7
TAP	51	288	0
STR	52	0	1
SI_	52	0	1	96	48	5
STR	52	192	6
SI_	52	192	6	96	48	2
TAP	53	0	2
TAP	53	0	5
STR	53	96	2
SI_	53	96	2	96	48	7
STR	53	192	5
SI_	53	192	5	96	48	0
TAP	54	0	7
TAP	54	48	7
TAP	54	96	6
TAP	54	144	6
TAP	54	192	5
TAP	54	240	5
TAP	54	288	4
TAP	54	336	4
TAP	55	0	3
TAP	55	48	3
TAP	55	96	2
TAP	55	144	2
TAP	55	192	1
TAP	55	240	1
TAP	55	288	0
TAP	55	336	0
TAP	56	0	7
TAP	56	48	7
TAP	56	96	5
TAP	56	144	5
TAP	56	192	3
TAP	56	240	3
TAP	56	288	1
TAP	56	336	1
TAP	57	0	0
TAP	57	0	1
TAP	57	48	0
TAP	57	48	1
TAP	57	96	6
TAP	57	96	7
TAP	57	144	6
TAP	57	144	7
TAP	57	192	4
TAP	57	192	5
TAP	57	288	2
TAP	57	288	3
HLD	58	0	6	288
TAP	58	192	5
HLD	58	288	5	96
HLD	59	0	1	192
HLD	59	192	2	192
HLD	60	0	5	288
HLD	61	0	1	192
HLD	61	192	0	96
HLD	61	287	7	97
HLD	62	0	0	192
HLD	62	192	7	192
HLD	63	0	3	192
HLD	63	192	4	192
TAP	63	288	5
HLD	64	0	6	480
TAP	66	0	0
TAP	66	64	0
TAP	66	96	1
TAP	66	160	1
TAP	66	192	2
TAP	66	256	2
TAP	66	288	3
TAP	66	352	3
TAP	67	0	4
TAP	67	64	4
TAP	67	96	5
TAP	67	160	5
TAP	67	192	6
TAP	67	288	6
TAP	67	288	7
TAP	68	0	7
TAP	68	64	7
TAP	68	96	6
TAP	68	160	6
TAP	68	192	5
TAP	68	256	5
TAP	68	288	4
TAP	68	352	4
TAP	69	0	3
TAP	69	64	3
TAP	69	96	2
TAP	69	160	2
TAP	69	192	1
TAP	69	288	0
TAP	69	288	1
TAP	70	0	1
TAP	70	32	0
TAP	70	64	1
TAP	70	96	0
TAP	70	192	2
TAP	70	224	3
TAP	70	256	2
TAP	70	288	3
TAP	71	0	4
TAP	71	32	5
TAP	71	64	4
TAP	71	96	5
TAP	71	192	7
TAP	71	224	6
TAP	71	256	7
TAP	71	288	6
TAP	72	0	1
TAP	72	32	0
TAP	72	64	2
TAP	72	96	6
TAP	72	128	7
TAP	72	160	5
TAP	72	192	0
TAP	72	224	7
TAP	72	256	0
TAP	72	288	7
TAP	73	0	6
TAP	73	0	7
TAP	73	64	4
TAP	73	64	5
TAP	73	128	2
TAP	73	128	3
BRK	73	192	0
BRK	73	192	1
HLD	74	0	6	192
TAP	74	96	0
TAP	74	144	7
HLD	74	192	0	144
TAP	74	288	1
TAP	74	336	2
TAP	75	48	3
TAP	75	96	4
HLD	75	144	5	96
TAP	75	240	1
TAP	75	288	0
TAP	75	336	7
HLD	76	0	1	96
HLD	76	96	5	96
HLD	76	192	4	96
TAP	76	288	0
TAP	76	336	0
STR	77	48	1
SI_	77	48	1	96	48	4
STR	77	96	6
SI_	77	96	6	96	48	3
BRK	77	288	0
BRK	77	288	7
HLD	78	0	1	192
TAP	78	96	7
TAP	78	144	0
HLD	78	192	7	144
TAP	78	288	6
TAP	78	336	5
STR	79	48	2
SCL	79	48	2	96	48	7
TAP	79	96	2
TAP	79	288	0
TAP	79	288	7
HLD	80	0	0	144
TAP	80	96	2
HLD	80	144	2	96
TAP	80	240	6
HLD	80	336	0	96
STR	81	48	7
SI_	81	48	7	96	48	3
TAP	81	96	7
BRK	81	288	0
BRK	81	288	7
TAP	82	0	2
TAP	82	48	3
TAP	82	96	2
TAP	82	144	3
TAP	82	192	4
TAP	82	240	5
TAP	82	288	4
TAP	82	336	5
TAP	83	0	1
TAP	83	48	0
TAP	83	96	5
TAP	83	144	6
TAP	83	192	7
TAP	83	240	0
TAP	83	288	1
TAP	83	336	2
HLD	84	0	6	96
HLD	84	96	5	96
HLD	84	192	4	96
TAP	84	288	3
HLD	84	336	2	96
TAP	85	48	1
TAP	85	96	0
TAP	85	144	7
TAP	85	192	6
BRK	85	288	0
BRK	85	288	7
TAP	86	0	0
TAP	86	48	1
TAP	86	96	2
TAP	86	144	3
TAP	86	192	4
TAP	86	240	5
TAP	86	288	6
TAP	86	336	7
TAP	87	0	0
TAP	87	48	1
TAP	87	96	2
TAP	87	144	3
TAP	87	192	4
TAP	87	240	5
TAP	87	288	6
TAP	87	336	7
TAP	88	0	0
TAP	88	24	1
TAP	88	48	2
TAP	88	72	3
TAP	88	96	4
TAP	88	120	5
TAP	88	144	6
TAP	88	168	7
TAP	88	192	0
TAP	88	216	1
TAP	88	240	2
TAP	88	264	3
TAP	88	288	4
TAP	88	312	5
HLD	88	336	6	144
STR	89	48	7
SCR	89	48	7	96	96	2
TAP	89	96	7

T_REC_TAP	371
T_REC_BRK	15
T_REC_XTP	0
T_REC_HLD	79
T_REC_XHO	0
T_REC_STR	15
T_REC_BST	0
T_REC_XST	0
T_REC_TTP	0
T_REC_THO	0
T_REC_SLD	15
T_REC_ALL	495
T_NUM_TAP	386
T_NUM_BRK	15
T_NUM_HLD	79
T_NUM_SLD	15
T_NUM_ALL	495
T_JUDGE_TAP	401
T_JUDGE_HLD	247
T_JUDGE_SLD	15
T_JUDGE_ALL	663
TTM_EACHPAIRS	41
TTM_SCR_TAP	193000
TTM_SCR_BRK	39000
TTM_SCR_HLD	79000
TTM_SCR_SLD	22500
TTM_SCR_ALL	333500
TTM_SCR_S	322050
TTM_SCR_SS	332000
TTM_RAT_ACV	10045

