VERSION	0.00.00	1.03.00
FES_MODE	0
BPM_DEF	180.000	180.000	180.000	180.000
MET_DEF	4	4
RESOLUTION	384
CLK_DEF	384
COMPATIBLE_CODE	MA2

BPM	0	0	180.000
MET	0	0	4	4

TAP	1	288	0
TAP	1	288	7
TAP	2	0	1
TAP	2	96	1
TAP	2	192	0
TAP	2	192	7
TAP	2	288	0
TAP	2	288	7
TAP	3	0	6
TAP	3	96	6
TAP	3	192	0
TAP	3	192	7
TAP	3	288	0
TAP	3	288	7
TAP	4	0	1
TAP	4	96	0
TAP	4	192	7
TAP	4	288	6
TAP	5	0	7
TAP	5	96	0
TAP	5	192	1
TAP	5	192	7
TAP	5	288	0
TAP	5	288	6
TAP	6	0	7
TAP	6	96	7
TAP	6	192	0
TAP	6	192	6
TAP	6	288	0
TAP	6	288	6
TAP	7	0	0
TAP	7	96	0
TAP	7	192	1
TAP	7	192	7
TAP	7	288	1
TAP	7	288	7
TAP	8	0	6
TAP	8	96	7
TAP	8	192	0
TAP	8	288	1
TAP	9	0	0
TAP	9	96	7
BRK	9	192	0
BRK	9	192	1
BRK	9	288	6
BRK	9	288	7
HLD	10	0	6	192
HLD	10	192	0	192
HLD	11	0	2	192
HLD	11	192	0	192
HLD	12	0	4	576
HLD	14	0	1	192
HLD	14	192	7	192
HLD	15	0	3	192
HLD	15	192	5	96
HLD	15	288	1	96
HLD	16	0	5	576
TAP	18	0	2
TAP	18	96	3
TAP	18	192	2
TAP	18	288	1
TAP	19	0	6
TAP	19	96	7
TAP	19	192	6
TAP	19	288	5
TAP	20	0	4
TAP	20	96	5
TAP	20	192	6
TAP	20	288	7
TAP	21	0	0
TAP	21	96	1
TAP	21	192	2
TAP	21	288	3
TAP	22	0	5
TAP	22	96	4
TAP	22	192	5
TAP	22	288	6
TAP	23	0	1
TAP	23	96	0
TAP	23	192	1
TAP	23	288	2
TAP	24	0	3
TAP	24	96	2
TAP	24	192	1
TAP	24	288	0
TAP	25	0	7
TAP	25	96	6
TAP	25	192	5
BRK	25	288	0
BRK	25	288	7
TAP	26	0	5
TAP	26	96	7
TAP	26	192	1
TAP	26	288	7
TAP	27	0	2
TAP	27	96	0
TAP	27	192	4
TAP	27	240	4
TAP	27	288	4
TAP	28	0	1
TAP	28	96	3
TAP	28	192	5
TAP	28	288	3
TAP	29	0	6
TAP	29	96	0
TAP	29	192	7
TAP	29	288	0
TAP	29	288	7
TAP	30	0	2
TAP	30	96	0
TAP	30	192	6
TAP	30	288	0
TAP	31	0	5
TAP	31	96	7
TAP	31	192	3
TAP	31	240	3
TAP	31	288	3
TAP	32	0	6
TAP	32	96	0
TAP	32	192	2
TAP	32	288	0
TAP	33	0	1
TAP	33	96	3
STR	33	192	5
SI_	33	192	5	96	96	1
TAP	34	0	7
TAP	34	96	5
TAP	34	192	7
TAP	34	288	1
TAP	35	0	2
TAP	35	96	0
TAP	35	192	7
TAP	35	288	5
TAP	36	0	4
TAP	36	96	2
TAP	36	192	6
TAP	36	288	0
TAP	37	0	7
TAP	37	96	1
TAP	37	192	5
TAP	37	288	3
TAP	37	288	4
TAP	38	0	0
TAP	38	96	2
TAP	38	192	0
TAP	38	288	6
TAP	39	0	5
TAP	39	96	7
TAP	39	192	0
TAP	39	288	2
TAP	40	0	0
TAP	40	96	5
TAP	40	192	7
TAP	40	288	2
TAP	41	0	0
TAP	41	96	5
STR	41	96	6
SI_	41	96	6	96	96	3
TAP	42	0	2
TAP	42	0	4
TAP	42	96	2
TAP	42	96	4
TAP	42	192	2
TAP	42	192	3
TAP	42	288	2
TAP	42	288	3
TAP	43	0	3
TAP	43	0	5
TAP	43	96	3
TAP	43	96	5
TAP	43	192	4
TAP	43	192	5
TAP	43	288	4
TAP	43	288	5
TAP	44	0	2
TAP	44	0	3
TAP	44	96	2
TAP	44	96	3
TAP	44	192	4
TAP	44	192	5
TAP	44	288	4
TAP	44	288	5
HLD	45	0	0	96
HLD	45	0	1	96
STR	45	144	0
SI_	45	144	0	96	96	5
STR	45	144	1
SI_	45	144	1	96	96	4
TAP	46	0	2
TAP	46	0	3
TAP	46	96	2
TAP	46	96	3
TAP	46	192	3
TAP	46	192	4
TAP	46	288	3
TAP	46	288	4
TAP	47	0	4
TAP	47	0	5
TAP	47	96	4
TAP	47	96	5
TAP	47	192	3
TAP	47	192	4
TAP	47	288	3
TAP	47	288	4
TAP	48	0	2
TAP	48	0	4
TAP	48	96	3
TAP	48	96	4
TAP	48	192	3
TAP	48	192	5
TAP	48	288	3
TAP	48	288	4
STR	49	0	2
SI_	49	0	2	96	96	7
TAP	49	192	0
TAP	49	288	0
TAP	50	0	2
TAP	50	0	7
TAP	50	96	2
TAP	50	96	7
HLD	50	192	0	96
TAP	50	192	1
TAP	50	288	1
TAP	51	0	0
TAP	51	0	5
TAP	51	96	0
TAP	51	96	5
TAP	51	192	6
HLD	51	192	7	96
TAP	51	288	6
TAP	52	0	0
TAP	52	0	7
TAP	52	96	1
TAP	52	96	7
TAP	52	192	0
TAP	52	192	7
TAP	52	288	0
TAP	52	288	6
STR	53	0	5
SCL	53	0	5	96	96	2
TAP	53	192	0
TAP	53	288	0
TAP	54	0	6
TAP	54	0	7
TAP	54	96	6
TAP	54	96	7
TAP	54	192	0
TAP	54	192	1
TAP	54	288	0
TAP	54	288	1
TAP	55	0	6
TAP	55	0	7
TAP	55	96	0
TAP	55	96	7
TAP	55	192	0
TAP	55	192	1
TAP	55	288	0
TAP	55	288	7
TAP	56	0	6
TAP	56	48	1
TAP	56	96	6
TAP	56	144	1
TAP	56	192	6
TAP	56	240	1
TAP	56	288	6
TAP	56	336	1
TAP	57	0	6
TAP	57	96	3
TAP	57	96	4
BRK	57	192	6
BRK	57	288	1
TAP	58	0	7
TAP	58	96	0
TAP	58	96	7
TAP	58	192	0
TAP	58	288	0
TAP	58	288	1
TAP	59	0	1
TAP	59	96	1
TAP	59	96	2
TAP	59	192	2
TAP	59	288	2
TAP	59	288	3
TAP	60	0	3
TAP	60	96	3
TAP	60	96	4
TAP	60	192	4
TAP	60	288	4
TAP	60	288	5
TAP	61	0	5
TAP	61	96	5
TAP	61	96	6
TAP	61	192	6
TAP	61	288	0
TAP	61	288	7
TAP	62	0	0
TAP	62	96	0
TAP	62	96	7
TAP	62	192	7
TAP	62	288	6
TAP	62	288	7
TAP	63	0	6
TAP	63	96	5
TAP	63	96	6
TAP	63	192	5
TAP	63	288	4
TAP	63	288	5
TAP	64	0	4
TAP	64	96	3
TAP	64	96	4
TAP	64	192	3
TAP	64	288	2
TAP	64	288	3
TAP	65	0	2
TAP	65	96	1
TAP	65	96	2
TAP	65	192	1
TAP	65	288	0
TAP	65	288	7
TAP	66	0	7
TAP	66	96	6
TAP	66	96	7
TAP	66	192	0
TAP	66	192	7
TAP	66	288	6
TAP	66	288	7
TAP	67	0	0
TAP	67	96	0
TAP	67	96	1
TAP	67	192	0
TAP	67	192	7
TAP	67	288	0
TAP	67	288	1
TAP	68	0	6
TAP	68	96	6
TAP	68	96	7
TAP	68	192	1
TAP	68	192	6
TAP	68	288	6
TAP	68	288	7
TAP	69	0	1
TAP	69	96	0
TAP	69	96	1
TAP	69	192	1
TAP	69	192	6
TAP	69	288	0
TAP	69	288	1
TAP	70	0	0
TAP	70	96	0
TAP	70	96	5
TAP	70	192	1
TAP	70	288	1
TAP	70	288	6
TAP	71	0	7
TAP	71	96	2
TAP	71	96	7
TAP	71	192	6
TAP	71	288	1
TAP	71	288	6
STR	72	0	0
SI_	72	0	0	96	96	4
TAP	73	0	7
TAP	73	64	0
TAP	73	128	6
BRK	73	192	1
TAP	74	0	3
TAP	74	0	4
TAP	74	96	2
TAP	74	96	3
TAP	74	192	1
TAP	74	192	2
TAP	74	288	0
TAP	74	288	1
TAP	75	0	3
TAP	75	0	4
TAP	75	96	4
TAP	75	96	5
TAP	75	192	5
TAP	75	192	6
TAP	75	288	6
TAP	75	288	7
TAP	76	0	0
TAP	76	0	7
TAP	76	96	0
TAP	76	96	1
TAP	76	192	0
TAP	76	192	7
TAP	76	288	6
TAP	76	288	7
TAP	77	0	0
TAP	77	0	1
TAP	77	96	6
TAP	77	96	7
TAP	77	192	0
TAP	77	192	7
TAP	77	288	1
TAP	77	288	6
TAP	78	0	0
TAP	78	0	7
TAP	78	96	0
TAP	78	96	1
TAP	78	192	1
TAP	78	192	2
TAP	78	288	2
TAP	78	288	3
TAP	79	0	0
TAP	79	0	7
TAP	79	96	6
TAP	79	96	7
TAP	79	192	5
TAP	79	192	6
TAP	79	288	4
TAP	79	288	5
TAP	80	0	3
TAP	80	0	4
TAP	80	96	2
TAP	80	96	4
TAP	80	192	3
TAP	80	192	4
TAP	80	288	3
TAP	80	288	5
TAP	81	0	2
TAP	81	0	4
TAP	81	96	3
TAP	81	96	5
TAP	81	192	2
HLD	81	192	4	96
BRK	81	288	0
TAP	82	0	2
TAP	82	0	3
TAP	82	96	3
TAP	82	96	4
TAP	82	192	4
TAP	82	192	5
TAP	82	288	5
HLD	82	288	6	288
TAP	83	0	7
TAP	83	96	7
TAP	83	192	7
TAP	83	288	0
TAP	83	288	7
TAP	84	0	0
TAP	84	0	1
TAP	84	96	0
TAP	84	96	7
TAP	84	192	6
TAP	84	192	7
TAP	84	288	1
TAP	84	288	7
TAP	85	0	0
TAP	85	0	6
TAP	85	96	1
TAP	85	96	7
TAP	85	192	0
TAP	85	192	6
TAP	85	288	0
TAP	85	288	7
TAP	86	0	2
TAP	86	48	2
TAP	86	96	5
TAP	86	144	5
TAP	86	192	1
TAP	86	240	1
TAP	86	288	6
TAP	86	336	6
TAP	87	0	0
TAP	87	48	0
TAP	87	96	7
TAP	87	144	7
TAP	87	192	1
TAP	87	240	1
TAP	87	288	5
TAP	87	337	5
TAP	88	0	3
TAP	88	48	3
TAP	88	96	5
TAP	88	144	5
TAP	88	192	1
TAP	88	240	1
TAP	88	288	7
TAP	88	336	7
TAP	89	48	0
TAP	89	96	7
STR	89	144	6
SI_	89	144	6	96	96	2

T_REC_TAP	442
T_REC_BRK	10
T_REC_XTP	0
T_REC_HLD	17
T_REC_XHO	0
T_REC_STR	8
T_REC_BST	0
T_REC_XST	0
T_REC_TTP	0
T_REC_THO	0
T_REC_SLD	8
T_REC_ALL	485
T_NUM_TAP	450
T_NUM_BRK	10
T_NUM_HLD	17
T_NUM_SLD	8
T_NUM_ALL	485
T_JUDGE_TAP	460
T_JUDGE_HLD	72
T_JUDGE_SLD	8
T_JUDGE_ALL	540
TTM_EACHPAIRS	138
TTM_SCR_TAP	225000
TTM_SCR_BRK	26000
TTM_SCR_HLD	17000
TTM_SCR_SLD	12000
TTM_SCR_ALL	280000
TTM_SCR_S	270650
TTM_SCR_SS	279000
TTM_RAT_ACV	10035

