VERSION	0.00.00	1.03.00
FES_MODE	0
BPM_DEF	180.000	180.000	180.000	180.000
MET_DEF	4	4
RESOLUTION	384
CLK_DEF	384
COMPATIBLE_CODE	MA2

BPM	0	0	180.000
MET	0	0	4	4

TAP	2	0	0
TAP	2	192	0
TAP	3	0	1
TAP	3	192	1
TAP	4	0	2
TAP	4	192	2
TAP	5	0	3
TAP	5	192	3
TAP	6	0	4
TAP	6	192	4
TAP	7	0	5
TAP	7	192	5
TAP	8	0	6
TAP	8	192	6
TAP	9	0	7
TAP	9	192	0
TAP	9	288	0
HLD	10	0	7	192
HLD	11	0	5	192
HLD	12	0	3	192
HLD	13	0	1	192
HLD	14	0	2	192
HLD	15	0	4	192
HLD	16	0	6	192
HLD	17	0	0	192
TAP	18	0	1
TAP	18	96	1
TAP	19	0	3
TAP	19	96	3
TAP	20	0	4
TAP	20	96	4
TAP	21	0	6
TAP	21	96	6
TAP	22	0	7
TAP	22	96	7
TAP	23	0	5
TAP	23	96	5
TAP	24	0	2
TAP	24	96	2
TAP	25	0	0
TAP	25	96	0
BRK	25	288	0
TAP	26	0	7
TAP	26	192	0
TAP	26	192	7
TAP	27	0	0
TAP	27	192	0
TAP	27	192	1
TAP	28	0	0
TAP	28	192	0
TAP	28	192	7
TAP	29	0	7
TAP	29	192	6
TAP	29	192	7
TAP	30	0	5
TAP	30	192	4
TAP	30	192	5
TAP	31	0	4
TAP	31	192	3
TAP	31	192	4
TAP	32	0	3
TAP	32	192	2
TAP	32	192	3
TAP	33	0	3
TAP	33	192	3
TAP	33	192	4
STR	34	0	2
SI_	34	0	2	96	288	6
STR	36	0	5
SI_	36	0	5	96	288	1
TAP	38	0	0
TAP	38	96	0
STR	38	192	0
SI_	38	192	0	96	288	4
TAP	40	0	7
TAP	40	96	7
STR	40	192	7
SI_	40	192	7	96	288	3
HLD	42	0	5	96
TAP	42	192	5
HLD	43	0	7	96
TAP	43	192	7
HLD	44	0	0	96
TAP	44	192	0
HLD	45	0	2	96
TAP	45	192	2
HLD	46	0	1	96
TAP	46	192	1
HLD	47	0	3	96
TAP	47	192	3
HLD	48	0	4	96
TAP	48	192	4
HLD	49	0	6	96
TAP	49	192	6
BRK	49	288	6
HLD	50	0	0	96
TAP	50	192	0
TAP	50	192	1
HLD	51	0	7	96
TAP	51	192	6
TAP	51	192	7
HLD	52	0	2	96
TAP	52	192	2
TAP	52	192	3
HLD	53	0	5	96
TAP	53	192	4
TAP	53	192	5
TAP	54	0	2
TAP	54	96	2
TAP	54	192	2
TAP	54	192	3
TAP	55	0	5
TAP	55	96	5
TAP	55	192	4
TAP	55	192	5
TAP	56	0	1
TAP	56	96	1
TAP	56	192	0
TAP	56	192	1
HLD	57	0	7	96
BRK	57	192	0
BRK	57	288	0
TAP	58	96	6
TAP	58	288	6
TAP	59	96	4
TAP	59	288	4
TAP	60	96	2
TAP	60	288	2
TAP	61	96	0
TAP	61	288	0
TAP	62	96	7
TAP	62	288	7
TAP	63	96	1
TAP	63	288	1
TAP	64	96	3
TAP	64	288	3
TAP	65	96	5
TAP	65	288	5
TAP	66	96	6
TAP	66	288	7
TAP	67	96	0
TAP	67	288	1
TAP	68	96	2
TAP	68	288	3
TAP	69	96	4
TAP	69	288	5
TAP	70	96	6
TAP	70	288	5
TAP	71	96	4
TAP	71	288	3
TAP	72	96	2
TAP	72	288	1
HLD	73	0	1	96
BRK	73	192	1
TAP	74	0	0
TAP	74	96	0
TAP	74	192	0
TAP	75	0	7
TAP	75	96	7
TAP	75	192	7
HLD	76	0	1	192
HLD	76	0	6	192
TAP	77	0	0
TAP	77	0	7
TAP	77	192	0
TAP	77	192	7
TAP	78	0	7
TAP	78	96	7
TAP	78	192	7
TAP	79	0	0
TAP	79	96	0
TAP	79	192	0
HLD	80	0	1	192
HLD	80	0	6	192
TAP	81	0	1
TAP	81	0	6
TAP	81	192	0
TAP	81	192	7
TAP	82	0	0
TAP	82	96	0
TAP	82	192	0
TAP	83	0	1
TAP	83	96	1
TAP	83	192	1
HLD	84	0	0	192
HLD	84	0	1	192
TAP	85	0	0
TAP	85	0	7
TAP	85	96	0
TAP	85	96	7
BRK	85	192	0
BRK	85	192	7
TAP	86	0	7
TAP	86	96	7
TAP	86	192	7
TAP	87	0	6
TAP	87	96	6
TAP	87	192	6
HLD	88	0	6	192
HLD	88	0	7	192
TAP	89	0	0
TAP	89	0	7
TAP	89	96	0
TAP	89	96	7
TAP	89	192	1
TAP	89	192	6
BRK	90	0	0
BRK	90	0	7

T_REC_TAP	161
T_REC_BRK	9
T_REC_XTP	0
T_REC_HLD	30
T_REC_XHO	0
T_REC_STR	4
T_REC_BST	0
T_REC_XST	0
T_REC_TTP	0
T_REC_THO	0
T_REC_SLD	4
T_REC_ALL	208
T_NUM_TAP	165
T_NUM_BRK	9
T_NUM_HLD	30
T_NUM_SLD	4
T_NUM_ALL	208
T_JUDGE_TAP	174
T_JUDGE_HLD	92
T_JUDGE_SLD	4
T_JUDGE_ALL	270
TTM_EACHPAIRS	30
TTM_SCR_TAP	82500
TTM_SCR_BRK	23400
TTM_SCR_HLD	30000
TTM_SCR_SLD	6000
TTM_SCR_ALL	141900
TTM_SCR_S	136800
TTM_SCR_SS	141000
TTM_RAT_ACV	10063

