VERSION	0.00.00	1.03.00
FES_MODE	0
BPM_DEF	168.000	168.000	195.000	168.000
MET_DEF	4	4
RESOLUTION	384
CLK_DEF	384
COMPATIBLE_CODE	MA2

BPM	0	0	168.000
BPM	74	0	174.000
BPM	78	0	180.000
BPM	80	0	183.000
BPM	84	0	184.001
BPM	85	0	190.000
BPM	88	0	193.001
BPM	88	192	195.000
MET	0	0	4	4

STR	2	0	0
SI_	2	0	0	96	48	4
STR	2	192	7
SI_	2	192	7	96	48	3
STR	3	0	1
SI_	3	0	1	96	48	4
STR	3	192	6
SI_	3	192	6	96	48	3
TAP	4	48	1
TAP	4	144	1
TAP	4	240	4
TAP	4	336	4
TAP	5	48	6
TAP	5	144	6
TAP	5	240	3
TAP	5	336	3
STR	6	0	4
SI_	6	0	4	96	48	6
STR	6	192	3
SI_	6	192	3	96	48	1
STR	7	0	5
SI_	7	0	5	96	48	7
STR	7	192	2
SI_	7	192	2	96	48	0
STR	8	0	7
SI_	8	0	7	96	48	5
STR	8	96	0
SI_	8	96	0	96	48	2
STR	8	192	6
SI_	8	192	6	96	48	4
STR	8	288	1
SI_	8	288	1	96	48	3
STR	9	0	7
SI_	9	0	7	96	48	3
STR	9	96	0
SI_	9	96	0	96	48	4
HLD	10	0	0	96
HLD	10	96	1	96
HLD	10	192	2	96
HLD	10	288	3	96
HLD	11	0	4	96
HLD	11	96	5	96
HLD	11	192	6	96
TAP	11	288	7
HLD	12	0	7	96
HLD	12	96	6	96
HLD	12	192	5	96
HLD	12	288	4	96
HLD	13	0	3	96
HLD	13	96	2	96
HLD	13	192	1	96
TAP	13	288	0
STR	14	0	0
SV_	14	0	0	96	48	1
STR	14	192	4
SV_	14	192	4	96	48	5
STR	15	0	2
SV_	15	0	2	96	48	3
STR	15	192	6
SV_	15	192	6	96	48	7
STR	16	0	0
SI_	16	0	0	96	48	4
STR	16	96	7
SI_	16	96	7	96	48	3
STR	16	192	1
SI_	16	192	1	96	48	5
STR	16	288	6
SI_	16	288	6	96	48	2
STR	17	0	0
SCR	17	0	0	96	48	3
STR	17	96	7
SCL	17	96	7	96	48	4
STR	17	192	0
SI_	17	192	0	96	48	4
STR	18	96	6
SI_	18	96	6	96	48	3
STR	18	192	0
SI_	18	192	0	96	48	2
HLD	18	288	4	288
TAP	19	96	2
TAP	19	192	2
HLD	19	288	0	96
HLD	20	0	6	144
HLD	20	144	4	144
TAP	20	288	7
TAP	21	96	7
TAP	21	192	0
TAP	21	240	1
TAP	21	288	2
STR	22	96	7
SUR	22	96	7	96	72	4
TAP	22	192	1
STR	22	288	0
SUL	22	288	0	96	72	3
TAP	23	0	6
STR	23	96	7
SUR	23	96	7	96	72	5
TAP	23	192	1
STR	23	288	0
SUL	23	288	0	96	72	2
TAP	24	0	6
TAP	24	288	0
TAP	24	288	1
TAP	25	96	6
TAP	25	96	7
TAP	25	192	0
TAP	25	240	7
TAP	25	288	1
TAP	25	288	6
STR	26	0	0
SI_	26	0	0	96	48	4
TAP	26	48	1
TAP	26	48	7
STR	26	192	7
SI_	26	192	7	96	48	3
TAP	26	240	0
TAP	26	240	6
STR	27	0	1
SI_	27	0	1	96	48	5
TAP	27	48	0
TAP	27	48	2
STR	27	192	6
SI_	27	192	6	96	48	2
TAP	27	240	5
TAP	27	240	7
STR	28	0	0
SI_	28	0	0	96	48	4
TAP	28	48	1
TAP	28	48	7
STR	28	192	7
SI_	28	192	7	96	48	3
TAP	28	240	0
TAP	28	240	6
STR	29	0	1
SI_	29	0	1	96	48	5
TAP	29	48	0
TAP	29	48	2
STR	29	192	6
SI_	29	192	6	96	48	2
TAP	29	240	5
TAP	29	240	7
STR	30	0	1
SI_	30	0	1	96	48	3
STR	30	96	0
SI_	30	96	0	96	48	3
STR	30	192	7
SI_	30	192	7	96	48	3
STR	30	288	6
SI_	30	288	6	96	48	3
STR	31	0	0
SI_	31	0	0	96	48	3
STR	31	96	6
SI_	31	96	6	96	48	3
STR	31	192	7
SI_	31	192	7	96	48	3
TAP	32	0	2
TAP	32	24	1
TAP	32	48	0
TAP	32	72	7
TAP	32	96	6
TAP	32	120	5
TAP	32	144	4
TAP	32	168	3
TAP	32	192	2
TAP	32	216	1
TAP	32	240	0
TAP	32	264	7
TAP	32	288	6
TAP	32	312	5
TAP	32	336	4
TAP	32	360	3
HLD	33	0	2	288
HLD	33	192	6	96
TAP	34	0	0
TAP	34	0	4
TAP	34	96	2
TAP	34	96	6
STR	34	192	3
SV_	34	192	3	96	48	1
STR	34	192	7
SV_	34	192	7	96	48	5
STR	35	0	7
SCR	35	0	7	96	48	2
TAP	35	48	6
TAP	35	96	5
STR	35	192	3
SCR	35	192	3	96	48	6
TAP	35	240	2
TAP	35	288	1
TAP	36	0	3
TAP	36	48	7
TAP	36	96	5
TAP	36	144	1
TAP	36	192	7
TAP	36	240	0
TAP	36	288	1
TAP	36	288	6
TAP	37	0	5
TAP	37	48	7
TAP	37	96	0
TAP	37	144	2
TAP	37	192	1
TAP	37	192	3
TAP	37	240	5
TAP	37	264	4
TAP	37	288	5
TAP	37	336	4
TAP	37	336	6
TAP	38	0	3
TAP	38	0	4
TAP	38	48	3
TAP	38	48	4
TAP	38	96	2
TAP	38	96	3
TAP	38	144	2
TAP	38	144	3
TAP	38	192	4
TAP	38	192	5
STR	39	0	0
SI_	39	0	0	96	48	2
TAP	39	48	6
TAP	39	96	4
STR	39	192	7
SI_	39	192	7	96	48	5
TAP	39	240	1
TAP	39	288	3
TAP	40	0	2
TAP	40	48	6
TAP	40	96	4
TAP	40	144	0
TAP	40	192	7
TAP	40	240	0
TAP	40	288	1
TAP	40	288	6
HLD	41	0	1	144
TAP	41	48	2
TAP	41	96	3
TAP	41	144	4
TAP	41	192	6
TAP	41	240	4
TAP	41	264	5
TAP	41	288	4
TAP	41	336	3
STR	42	0	4
SI_	42	0	4	96	48	0
BRK	42	192	0
BRK	42	192	1
BRK	42	288	6
BRK	42	288	7
STR	43	0	0
SCL	43	0	0	96	48	5
TAP	43	48	1
TAP	43	96	2
STR	43	192	4
SCL	43	192	4	96	48	1
TAP	43	240	5
TAP	43	288	6
TAP	44	0	4
TAP	44	48	0
TAP	44	96	2
TAP	44	144	6
TAP	44	192	0
TAP	44	240	7
TAP	44	288	1
TAP	44	288	6
TAP	45	0	2
TAP	45	48	0
TAP	45	96	7
TAP	45	144	5
TAP	45	192	4
TAP	45	192	6
TAP	45	240	2
TAP	45	264	3
TAP	45	288	2
TAP	45	336	1
TAP	45	336	3
TAP	46	0	3
TAP	46	0	4
TAP	46	48	3
TAP	46	48	4
TAP	46	96	4
TAP	46	96	5
TAP	46	144	4
TAP	46	144	5
TAP	46	192	2
TAP	46	192	3
STR	47	0	1
SI_	47	0	1	96	48	5
TAP	47	48	7
TAP	47	96	3
STR	47	192	6
SI_	47	192	6	96	48	2
TAP	47	240	0
TAP	47	288	4
TAP	48	0	1
TAP	48	48	3
TAP	48	96	6
TAP	48	144	4
TAP	48	192	2
TAP	48	240	5
TAP	48	288	0
TAP	48	288	7
HLD	49	0	2	144
TAP	49	48	1
TAP	49	96	0
TAP	49	144	7
TAP	49	192	5
TAP	49	240	7
TAP	49	264	6
TAP	49	288	7
TAP	49	336	0
BRK	50	0	1
BRK	50	0	6
TAP	51	0	2
TAP	51	32	3
TAP	51	64	2
TAP	51	96	5
TAP	51	128	4
TAP	51	160	5
TAP	51	192	2
TAP	51	224	3
TAP	51	256	2
BRK	51	288	5
BRK	51	288	6
BRK	51	352	2
BRK	51	352	3
BRK	52	32	0
BRK	52	32	7
TAP	52	96	2
TAP	52	128	3
TAP	52	160	1
TAP	52	192	5
TAP	52	224	4
TAP	52	256	6
TAP	52	288	2
TAP	52	320	5
TAP	52	352	2
BRK	53	0	0
BRK	53	0	7
BRK	53	64	4
BRK	53	64	5
BRK	53	128	2
BRK	53	128	3
TAP	53	192	1
TAP	53	224	3
TAP	53	256	2
TAP	53	288	6
TAP	53	320	4
TAP	53	352	5
TAP	54	0	1
TAP	54	32	6
TAP	54	64	1
BRK	54	96	5
BRK	54	96	7
BRK	54	160	3
BRK	54	160	4
BRK	54	224	0
BRK	54	224	2
TAP	54	288	1
TAP	54	320	7
TAP	54	352	0
TAP	55	0	6
TAP	55	32	0
TAP	55	64	7
TAP	55	96	3
TAP	55	128	4
TAP	55	160	3
BRK	55	192	2
BRK	55	192	6
BRK	55	256	0
BRK	55	256	4
BRK	55	320	1
BRK	55	320	5
HLD	56	0	1	288
TAP	56	96	0
TAP	56	192	2
HLD	56	288	7	384
TAP	57	0	6
TAP	57	96	0
TAP	57	192	5
TAP	57	288	2
HLD	58	0	2	288
TAP	58	96	3
TAP	58	192	1
HLD	58	288	5	288
TAP	59	0	4
TAP	59	96	6
HLD	59	192	3	96
TAP	59	288	1
HLD	60	0	7	192
TAP	60	96	6
HLD	60	192	0	192
TAP	60	288	1
HLD	61	0	7	96
HLD	61	96	5	96
HLD	61	192	3	96
TAP	61	288	1
HLD	62	0	0	96
HLD	62	96	1	96
HLD	62	192	4	96
HLD	62	288	5	96
HLD	63	0	6	96
HLD	63	96	7	96
HLD	63	192	2	96
TAP	63	288	3
STR	64	0	1
SCR	64	0	1	96	48	3
TAP	64	96	4
STR	64	192	5
SCR	64	192	5	96	48	7
TAP	64	288	0
STR	65	0	0
SI_	65	0	0	96	48	4
TAP	65	96	6
STR	65	192	6
SI_	65	192	6	96	48	3
TAP	65	288	1
STR	66	0	4
SCR	66	0	4	96	48	6
TAP	66	96	3
STR	66	192	2
SCL	66	192	2	96	48	0
TAP	66	288	7
STR	67	0	1
SI_	67	0	1	96	48	5
STR	67	96	0
SI_	67	96	0	96	48	4
STR	67	192	7
SI_	67	192	7	96	48	3
TAP	67	288	0
STR	68	0	0
SI_	68	0	0	96	48	4
TAP	68	96	0
STR	68	96	7
SI_	68	96	7	96	48	3
STR	68	192	1
SI_	68	192	1	96	48	4
TAP	68	192	7
TAP	68	288	1
STR	69	0	6
SI_	69	0	6	96	48	3
STR	69	96	0
SI_	69	96	0	96	48	4
TAP	69	96	6
TAP	69	192	0
STR	69	192	7
SI_	69	192	7	96	48	3
TAP	69	288	7
STR	70	0	0
SI_	70	0	0	96	48	2
TAP	70	96	0
STR	70	96	6
SI_	70	96	6	96	48	4
STR	70	192	3
SI_	70	192	3	96	48	7
TAP	70	192	6
TAP	70	288	3
TAP	71	0	2
TAP	71	0	6
STR	71	96	0
SSL	71	96	0	96	96	4
STR	72	0	2
SI_	72	0	2	96	48	6
TAP	72	96	0
STR	72	192	4
SI_	72	192	4	96	48	0
TAP	72	288	2
TAP	73	0	1
TAP	73	48	1
STR	73	96	7
SCR	73	96	7	96	48	2
TAP	73	144	6
TAP	73	192	5
TAP	73	288	2
TAP	73	288	3
TAP	73	336	4
TAP	73	336	5
TAP	74	48	0
TAP	74	96	4
TAP	74	144	2
TAP	74	192	6
TAP	74	240	1
TAP	74	264	5
TAP	74	288	3
TAP	74	336	7
STR	75	0	1
SCR	75	0	1	96	48	4
TAP	75	96	5
TAP	75	144	6
STR	75	192	7
SCR	75	192	7	96	48	2
TAP	75	288	3
STR	76	0	1
SUR	76	0	1	96	48	6
TAP	76	96	7
STR	76	192	5
SCL	76	192	5	96	48	2
TAP	76	288	0
TAP	77	0	7
TAP	77	48	0
STR	77	96	7
SI_	77	96	7	96	96	3
TAP	77	144	0
STR	77	192	7
SI_	77	192	7	96	96	4
HLD	77	336	6	96
TAP	78	48	4
HLD	78	96	1	96
TAP	78	144	3
TAP	78	192	6
TAP	78	240	0
TAP	78	264	7
TAP	78	288	0
TAP	78	336	2
TAP	78	336	5
STR	79	0	6
SI_	79	0	6	96	48	4
STR	79	96	0
SI_	79	96	0	96	48	4
STR	79	192	7
SI_	79	192	7	96	48	4
STR	80	0	1
SI_	80	0	1	96	48	5
TAP	80	48	0
TAP	80	96	7
TAP	80	144	6
STR	80	192	5
SCR	80	192	5	96	48	0
TAP	80	240	4
TAP	80	288	3
TAP	80	336	2
TAP	81	0	1
TAP	81	48	7
TAP	81	96	3
TAP	81	144	5
TAP	81	192	0
TAP	81	192	4
TAP	81	288	2
TAP	81	288	6
STR	81	336	3
SCR	81	336	3	96	48	6
TAP	81	336	7
TAP	82	48	2
TAP	82	96	1
TAP	82	144	0
TAP	82	192	1
TAP	82	192	7
TAP	82	240	0
TAP	82	264	5
TAP	82	288	3
TAP	82	336	2
TAP	82	336	4
TAP	83	0	3
TAP	83	0	4
TAP	83	48	3
TAP	83	48	4
TAP	83	96	2
TAP	83	96	3
TAP	83	144	2
TAP	83	144	3
TAP	83	192	4
TAP	83	192	5
TAP	83	288	0
TAP	83	288	7
STR	84	0	5
SCL	84	0	5	96	48	2
TAP	84	48	6
TAP	84	96	7
TAP	84	144	0
STR	84	192	1
SUR	84	192	1	96	48	6
TAP	84	240	2
TAP	84	288	3
TAP	84	336	4
TAP	85	0	5
TAP	85	48	4
TAP	85	96	3
TAP	85	144	2
TAP	85	192	0
TAP	85	192	7
TAP	85	288	0
TAP	85	288	1
TAP	85	336	6
TAP	85	336	7
TAP	86	48	6
TAP	86	96	4
TAP	86	144	2
TAP	86	192	0
TAP	86	192	6
TAP	86	240	7
TAP	86	264	2
TAP	86	288	4
TAP	86	336	3
TAP	86	336	5
TAP	87	0	0
TAP	87	0	4
TAP	87	48	2
TAP	87	48	6
TAP	87	96	1
TAP	87	96	5
TAP	87	144	3
TAP	87	144	7
TAP	87	192	0
TAP	87	192	1
TAP	87	240	4
TAP	87	240	6
TAP	87	288	1
TAP	87	288	4
TAP	87	336	6
TAP	87	336	7
TAP	88	0	1
TAP	88	96	0
TAP	88	192	7
STR	88	288	1
SCR	88	288	1	96	384	6
STR	88	288	4
SSL	88	288	4	96	384	0

T_REC_TAP	356
T_REC_BRK	30
T_REC_XTP	0
T_REC_HLD	41
T_REC_XHO	0
T_REC_STR	95
T_REC_BST	0
T_REC_XST	0
T_REC_TTP	0
T_REC_THO	0
T_REC_SLD	95
T_REC_ALL	617
T_NUM_TAP	451
T_NUM_BRK	30
T_NUM_HLD	41
T_NUM_SLD	95
T_NUM_ALL	617
T_JUDGE_TAP	481
T_JUDGE_HLD	116
T_JUDGE_SLD	95
T_JUDGE_ALL	692
TTM_EACHPAIRS	82
TTM_SCR_TAP	225500
TTM_SCR_BRK	78000
TTM_SCR_HLD	41000
TTM_SCR_SLD	142500
TTM_SCR_ALL	487000
TTM_SCR_S	469500
TTM_SCR_SS	484000
TTM_RAT_ACV	10061

