VERSION	0.00.00	1.03.00
FES_MODE	0
BPM_DEF	168.000	168.000	195.000	168.000
MET_DEF	4	4
RESOLUTION	384
CLK_DEF	384
COMPATIBLE_CODE	MA2

BPM	0	0	168.000
BPM	74	0	174.000
BPM	78	0	180.000
BPM	80	0	183.000
BPM	84	0	184.001
BPM	85	0	190.000
BPM	88	0	193.000
BPM	88	192	195.000
MET	0	0	4	4

STR	2	0	1
SI_	2	0	1	96	96	4
TAP	2	192	6
STR	3	0	7
SI_	3	0	7	96	96	3
TAP	3	192	1
STR	4	0	2
SCR	4	0	2	96	96	5
TAP	4	192	6
STR	5	0	7
SCL	5	0	7	96	96	4
TAP	5	192	1
HLD	6	0	1	192
TAP	6	96	2
HLD	6	192	5	192
TAP	6	288	4
HLD	7	0	0	96
TAP	7	96	1
TAP	7	192	2
TAP	7	192	3
TAP	7	288	4
TAP	7	288	5
HLD	8	0	6	192
TAP	8	96	5
HLD	8	192	2	192
TAP	8	288	3
HLD	9	0	7	96
TAP	9	96	0
BRK	9	192	1
BRK	9	192	6
TAP	10	0	0
TAP	10	0	5
TAP	10	96	1
TAP	10	192	2
TAP	10	192	7
TAP	10	288	5
HLD	11	0	0	96
HLD	11	96	2	96
HLD	11	192	4	96
TAP	11	288	6
TAP	12	0	0
TAP	12	0	4
TAP	12	96	1
TAP	12	192	3
TAP	12	192	7
TAP	12	288	6
TAP	13	0	5
TAP	13	0	7
TAP	13	96	4
TAP	13	96	6
TAP	13	192	1
TAP	13	192	3
TAP	13	288	2
TAP	13	288	4
HLD	14	0	0	96
TAP	14	0	5
TAP	14	96	1
TAP	14	192	2
HLD	14	192	6	96
TAP	14	288	5
HLD	15	0	1	96
HLD	15	96	3	96
HLD	15	192	5	96
TAP	15	288	7
TAP	16	0	1
HLD	16	0	7	96
TAP	16	96	5
HLD	16	192	2	96
TAP	16	192	4
TAP	16	288	0
TAP	17	0	3
TAP	17	0	7
TAP	17	96	1
TAP	17	96	5
TAP	17	192	2
TAP	17	192	6
TAP	17	288	0
TAP	17	288	4
STR	18	0	2
SI_	18	0	2	96	192	6
TAP	18	288	4
STR	19	0	4
SI_	19	0	4	96	192	0
TAP	19	288	1
STR	20	0	1
SUL	20	0	1	96	192	5
TAP	21	0	4
TAP	21	96	4
TAP	21	192	5
TAP	21	288	5
STR	22	0	6
SI_	22	0	6	96	192	2
TAP	22	288	0
STR	23	0	0
SI_	23	0	0	96	192	4
TAP	23	288	7
STR	24	0	7
SSR	24	0	7	96	192	3
TAP	25	0	0
TAP	25	96	0
TAP	25	192	1
TAP	25	288	1
STR	26	0	2
SI_	26	0	2	96	192	6
TAP	26	288	4
STR	27	0	4
SI_	27	0	4	96	192	0
TAP	27	288	1
STR	28	0	1
SUR	28	0	1	96	192	4
TAP	29	0	6
TAP	29	96	6
TAP	29	192	7
TAP	29	288	7
HLD	30	0	0	384
TAP	30	96	1
TAP	30	192	2
TAP	30	288	3
HLD	31	0	4	288
TAP	31	96	5
TAP	31	192	6
TAP	31	288	7
TAP	32	0	4
TAP	32	0	6
TAP	32	96	6
TAP	32	192	2
TAP	32	192	4
TAP	32	288	2
STR	33	0	7
SCL	33	0	7	96	96	3
HLD	33	192	1	480
BRK	34	0	0
BRK	34	96	6
BRK	34	192	2
BRK	34	288	4
STR	35	0	4
SI_	35	0	4	96	48	0
TAP	35	0	6
TAP	35	192	1
STR	35	192	3
SI_	35	192	3	96	48	6
TAP	36	0	5
TAP	36	96	4
TAP	36	192	3
TAP	36	288	2
STR	37	0	1
SI_	37	0	1	96	48	5
TAP	37	0	7
TAP	37	192	2
STR	37	192	7
SI_	37	192	7	96	48	3
TAP	38	0	2
TAP	38	96	3
TAP	38	192	4
TAP	38	192	5
TAP	39	0	0
STR	39	0	6
SI_	39	0	6	96	48	2
STR	39	192	0
SI_	39	192	0	96	48	4
TAP	39	192	5
TAP	40	0	5
TAP	40	96	6
TAP	40	192	0
TAP	40	288	1
HLD	41	0	2	96
TAP	41	0	3
TAP	41	96	4
TAP	41	192	4
HLD	41	192	5	96
TAP	41	288	1
STR	42	0	6
SCL	42	0	6	96	96	3
STR	42	0	7
SCR	42	0	7	96	96	2
TAP	43	0	1
STR	43	0	3
SI_	43	0	3	96	48	7
TAP	43	96	1
STR	43	192	4
SI_	43	192	4	96	48	1
TAP	43	192	6
TAP	43	288	6
TAP	44	0	2
TAP	44	96	3
TAP	44	192	4
TAP	44	288	5
TAP	45	0	0
STR	45	0	6
SI_	45	0	6	96	48	2
TAP	45	96	0
STR	45	192	0
SI_	45	192	0	96	48	4
TAP	45	192	5
TAP	45	288	5
TAP	46	0	7
TAP	46	96	6
TAP	46	192	4
TAP	46	192	5
STR	47	0	1
SI_	47	0	1	96	48	5
TAP	47	0	7
TAP	47	96	7
TAP	47	192	2
STR	47	192	7
SI_	47	192	7	96	48	3
TAP	47	288	2
TAP	48	0	1
TAP	48	96	0
TAP	48	192	6
TAP	48	288	5
TAP	49	0	2
TAP	49	0	6
TAP	49	96	1
TAP	49	192	3
TAP	49	192	7
TAP	49	288	6
STR	50	0	0
SCR	50	0	0	96	96	3
STR	50	0	4
SCR	50	0	4	96	96	7
HLD	51	0	3	96
HLD	51	96	4	96
HLD	51	192	6	224
TAP	51	288	5
TAP	51	352	5
TAP	52	32	5
HLD	52	96	4	96
HLD	52	192	3	96
HLD	52	288	1	224
TAP	53	0	2
TAP	53	64	2
TAP	53	128	2
HLD	53	192	3	96
HLD	53	288	5	96
HLD	54	0	7	224
TAP	54	96	6
TAP	54	160	6
TAP	54	224	6
HLD	54	288	4	96
HLD	55	0	2	96
HLD	55	96	0	224
TAP	55	192	1
TAP	55	256	1
TAP	55	320	1
STR	56	0	1
SI_	56	0	1	96	48	4
STR	56	192	5
SI_	56	192	5	96	48	2
STR	57	0	0
SI_	57	0	0	96	48	2
STR	57	192	4
SI_	57	192	4	96	48	6
STR	58	0	1
SI_	58	0	1	96	48	6
STR	58	192	5
SI_	58	192	5	96	48	0
STR	59	0	1
SCL	59	0	1	96	192	2
STR	60	0	6
SI_	60	0	6	96	48	3
STR	60	192	2
SI_	60	192	2	96	48	5
STR	61	0	7
SI_	61	0	7	96	48	5
STR	61	192	3
SI_	61	192	3	96	48	1
STR	62	0	6
SI_	62	0	6	96	48	1
STR	62	192	2
SI_	62	192	2	96	48	7
STR	63	0	6
SCR	63	0	6	96	192	5
HLD	64	0	0	96
TAP	64	96	1
HLD	64	192	5	96
TAP	64	288	4
HLD	65	0	1	288
TAP	65	96	2
TAP	65	192	5
TAP	65	288	0
HLD	66	0	7	96
TAP	66	96	6
HLD	66	192	1	96
TAP	66	288	2
TAP	67	0	0
TAP	67	0	6
TAP	67	96	5
TAP	67	96	7
TAP	67	192	4
TAP	67	192	6
TAP	67	288	3
TAP	67	288	5
HLD	68	0	7	96
TAP	68	96	6
HLD	68	192	2	96
TAP	68	288	3
HLD	69	0	6	288
TAP	69	96	5
TAP	69	192	2
TAP	69	288	7
HLD	70	0	5	96
TAP	70	96	4
HLD	70	192	1	96
TAP	70	288	2
TAP	71	0	0
TAP	71	0	6
TAP	71	96	1
TAP	71	96	7
TAP	71	192	0
TAP	71	192	2
BRK	71	288	1
BRK	71	288	3
STR	72	0	1
SI_	72	0	1	96	48	4
TAP	72	96	1
STR	72	192	6
SI_	72	192	6	96	48	3
TAP	72	288	6
STR	73	0	0
SI_	73	0	0	96	48	5
TAP	73	96	0
STR	73	192	7
SI_	73	192	7	96	48	2
TAP	73	288	7
TAP	74	0	1
TAP	74	96	3
TAP	74	192	5
TAP	74	288	7
TAP	75	0	6
TAP	75	0	7
TAP	75	96	4
TAP	75	96	5
TAP	75	192	2
TAP	75	192	3
TAP	75	288	0
TAP	75	288	1
STR	76	0	6
SUR	76	0	6	96	48	2
TAP	76	96	6
STR	76	192	0
SUL	76	192	0	96	48	4
TAP	76	288	0
STR	77	0	7
SUR	77	0	7	96	48	3
TAP	77	96	7
STR	77	192	1
SUL	77	192	1	96	48	5
TAP	77	288	1
TAP	78	0	6
TAP	78	96	4
TAP	78	192	2
TAP	78	288	0
TAP	79	0	6
TAP	79	0	7
TAP	79	96	0
TAP	79	96	5
TAP	79	192	1
TAP	79	192	4
BRK	79	288	2
BRK	79	288	3
TAP	80	0	0
STR	80	0	1
SI_	80	0	1	96	48	4
TAP	80	96	0
STR	80	192	6
SI_	80	192	6	96	48	3
TAP	80	192	7
TAP	80	288	7
TAP	81	0	2
TAP	81	0	3
TAP	81	96	2
TAP	81	96	4
TAP	81	192	4
TAP	81	192	5
TAP	81	288	3
TAP	81	288	5
STR	82	0	0
SI_	82	0	0	96	48	5
TAP	82	0	1
TAP	82	96	1
TAP	82	192	6
STR	82	192	7
SI_	82	192	7	96	48	2
TAP	82	288	6
TAP	83	0	0
TAP	83	0	1
TAP	83	96	2
TAP	83	96	7
TAP	83	192	6
TAP	83	192	7
TAP	83	288	0
TAP	83	288	5
STR	84	0	0
SI_	84	0	0	96	48	4
TAP	84	0	7
TAP	84	96	7
STR	84	192	6
SI_	84	192	6	96	48	3
TAP	84	192	7
TAP	84	288	7
TAP	85	0	2
TAP	85	0	6
TAP	85	96	0
TAP	85	96	4
TAP	85	192	3
TAP	85	192	7
TAP	85	288	1
TAP	85	288	5
TAP	86	0	0
STR	86	0	7
SI_	86	0	7	96	48	3
TAP	86	96	0
TAP	86	192	0
STR	86	192	1
SI_	86	192	1	96	48	4
TAP	86	288	0
TAP	87	0	0
BRK	87	0	4
BRK	87	96	2
TAP	87	96	6
BRK	87	192	0
TAP	87	192	4
BRK	87	288	1
TAP	87	288	5
TAP	88	0	1
TAP	88	48	0
TAP	88	96	1
TAP	88	192	5
STR	88	240	4
SI_	88	240	4	96	432	0
TAP	88	288	5
TAP	88	336	4

T_REC_TAP	254
T_REC_BRK	14
T_REC_XTP	0
T_REC_HLD	43
T_REC_XHO	0
T_REC_STR	61
T_REC_BST	0
T_REC_XST	0
T_REC_TTP	0
T_REC_THO	0
T_REC_SLD	61
T_REC_ALL	433
T_NUM_TAP	315
T_NUM_BRK	14
T_NUM_HLD	43
T_NUM_SLD	61
T_NUM_ALL	433
T_JUDGE_TAP	329
T_JUDGE_HLD	132
T_JUDGE_SLD	61
T_JUDGE_ALL	522
TTM_EACHPAIRS	81
TTM_SCR_TAP	157500
TTM_SCR_BRK	36400
TTM_SCR_HLD	43000
TTM_SCR_SLD	91500
TTM_SCR_ALL	328400
TTM_SCR_S	317200
TTM_SCR_SS	327000
TTM_RAT_ACV	10042

