VERSION	0.00.00	1.03.00
FES_MODE	0
BPM_DEF	168.000	168.000	195.000	168.000
MET_DEF	4	4
RESOLUTION	384
CLK_DEF	384
COMPATIBLE_CODE	MA2

BPM	0	0	168.000
BPM	74	0	174.000
BPM	78	0	180.000
BPM	80	0	183.000
BPM	84	0	184.001
BPM	85	0	190.000
BPM	88	0	193.001
BPM	89	0	195.000
MET	0	0	4	4

TAP	2	0	0
TAP	2	192	0
TAP	3	0	2
TAP	3	0	6
TAP	3	192	1
TAP	3	192	5
TAP	4	0	7
TAP	4	192	7
TAP	5	0	1
TAP	5	0	5
TAP	5	192	2
TAP	5	192	6
TAP	6	0	0
TAP	6	0	1
TAP	6	192	6
TAP	6	192	7
TAP	7	0	1
TAP	7	96	6
TAP	7	192	5
TAP	7	288	3
TAP	8	0	2
TAP	8	0	3
TAP	8	192	4
TAP	8	192	5
TAP	9	0	0
TAP	9	96	7
TAP	9	192	1
TAP	9	192	6
TAP	10	0	0
TAP	10	192	0
TAP	10	192	7
TAP	11	0	1
TAP	11	96	2
TAP	11	192	1
TAP	11	192	2
TAP	12	0	4
TAP	12	192	3
TAP	12	192	4
TAP	13	0	4
TAP	13	0	6
TAP	13	96	5
TAP	13	192	2
TAP	13	192	4
TAP	13	288	3
TAP	14	0	2
TAP	14	192	1
TAP	14	192	2
TAP	15	0	0
TAP	15	96	7
TAP	15	192	0
TAP	15	192	7
TAP	16	0	6
TAP	16	192	5
TAP	16	192	6
TAP	17	0	2
TAP	17	0	4
TAP	17	96	3
TAP	17	192	4
TAP	17	192	6
BRK	17	288	5
TAP	18	96	0
TAP	18	288	0
TAP	19	96	7
TAP	19	288	7
STR	20	0	7
SI_	20	0	7	96	288	2
TAP	22	96	1
TAP	22	288	1
TAP	23	96	2
TAP	23	288	2
STR	24	0	2
SI_	24	0	2	96	288	6
TAP	26	96	0
TAP	26	96	2
TAP	26	288	3
TAP	26	288	7
TAP	27	96	5
TAP	27	96	7
TAP	27	288	0
TAP	27	288	4
STR	28	0	0
SCR	28	0	0	96	288	3
STR	28	0	4
SCR	28	0	4	96	288	7
TAP	30	96	2
TAP	30	288	2
TAP	31	96	3
TAP	31	288	3
TAP	32	0	4
TAP	32	0	5
TAP	32	192	1
TAP	32	192	3
HLD	33	0	6	192
TAP	33	192	7
TAP	34	0	0
TAP	34	0	4
TAP	34	96	1
TAP	34	96	5
TAP	34	192	2
TAP	34	192	6
BRK	34	288	3
BRK	34	288	7
HLD	35	0	4	96
HLD	35	192	2	96
TAP	36	0	3
TAP	36	96	4
TAP	36	192	5
TAP	36	192	6
HLD	37	0	1	96
HLD	37	192	7	96
TAP	38	0	6
TAP	38	96	5
TAP	38	192	3
TAP	38	192	4
HLD	39	0	3	96
HLD	39	192	5	96
TAP	40	0	4
TAP	40	96	3
TAP	40	192	2
TAP	41	0	1
TAP	41	96	1
TAP	41	192	5
TAP	41	288	5
STR	42	0	3
SI_	42	0	3	96	96	0
STR	42	0	7
SI_	42	0	7	96	96	4
HLD	43	0	4	96
HLD	43	0	5	96
HLD	43	192	1	96
HLD	43	192	3	96
TAP	44	0	3
TAP	44	96	4
TAP	44	192	2
TAP	44	192	5
TAP	45	0	1
TAP	45	96	1
TAP	45	192	7
TAP	45	288	7
TAP	46	0	6
TAP	46	96	5
TAP	46	192	4
TAP	46	192	5
HLD	47	0	2	96
HLD	47	0	3	96
HLD	47	192	4	96
HLD	47	192	6	96
TAP	48	0	4
TAP	48	96	3
TAP	48	192	2
TAP	48	192	5
TAP	49	0	6
TAP	49	96	6
TAP	49	192	2
TAP	49	288	2
STR	50	0	0
SI_	50	0	0	96	96	3
STR	50	0	4
SI_	50	0	4	96	96	7
TAP	51	0	2
TAP	51	96	2
TAP	51	192	2
TAP	51	288	2
TAP	51	288	3
TAP	52	96	6
TAP	52	192	6
TAP	52	288	6
TAP	53	0	6
TAP	53	0	7
TAP	53	192	5
TAP	53	288	5
TAP	54	0	5
TAP	54	96	4
TAP	54	96	5
TAP	54	288	1
TAP	55	0	1
TAP	55	96	1
TAP	55	192	0
TAP	55	192	1
TAP	56	0	2
TAP	56	96	3
TAP	56	192	2
TAP	56	192	3
TAP	57	0	5
TAP	57	96	4
TAP	57	192	4
TAP	57	192	5
TAP	58	0	6
TAP	58	96	7
TAP	58	192	6
TAP	58	192	7
TAP	59	0	6
TAP	59	96	6
TAP	59	192	0
TAP	59	288	0
TAP	60	0	5
TAP	60	96	4
TAP	60	192	4
TAP	60	192	5
TAP	61	0	2
TAP	61	96	3
TAP	61	192	2
TAP	61	192	3
TAP	62	0	1
TAP	62	96	0
TAP	62	192	0
TAP	62	192	1
TAP	63	0	1
TAP	63	96	1
TAP	63	192	7
BRK	63	288	7
TAP	64	0	1
TAP	64	96	2
TAP	64	192	1
TAP	64	192	3
TAP	65	0	5
TAP	65	96	4
TAP	65	192	3
TAP	65	192	5
TAP	66	0	5
TAP	66	96	6
TAP	66	192	5
TAP	66	192	7
TAP	67	0	0
TAP	67	0	1
TAP	67	96	1
TAP	67	96	2
TAP	67	192	2
TAP	67	192	3
TAP	67	288	3
TAP	67	288	4
TAP	68	0	6
TAP	68	96	5
TAP	68	192	4
TAP	68	192	6
TAP	69	0	2
TAP	69	96	3
TAP	69	192	2
TAP	69	192	4
TAP	70	0	2
TAP	70	96	1
TAP	70	192	0
TAP	70	192	2
TAP	71	0	0
TAP	71	0	7
TAP	71	96	6
TAP	71	96	7
TAP	71	192	5
TAP	71	192	6
BRK	71	288	4
BRK	71	288	5
HLD	72	0	2	192
TAP	72	192	3
HLD	73	0	6	192
TAP	73	192	5
HLD	74	0	0	192
TAP	74	192	1
TAP	75	0	0
TAP	75	0	1
TAP	75	96	2
TAP	75	96	7
TAP	75	192	3
TAP	75	192	6
TAP	75	288	4
TAP	75	288	5
HLD	76	0	5	192
TAP	76	192	3
HLD	77	0	1	192
TAP	77	192	4
HLD	78	0	7	192
TAP	78	192	5
TAP	79	0	6
TAP	79	0	7
TAP	79	96	0
TAP	79	96	5
TAP	79	192	1
TAP	79	192	4
BRK	79	288	2
BRK	79	288	3
HLD	80	0	2	192
HLD	80	192	3	192
TAP	81	0	4
TAP	81	96	4
TAP	81	192	5
TAP	81	288	5
HLD	82	0	4	192
HLD	82	192	3	192
TAP	83	0	2
TAP	83	96	2
TAP	83	192	1
TAP	83	288	1
HLD	84	0	0	192
HLD	84	192	2	192
TAP	85	0	4
TAP	85	96	4
TAP	85	192	6
TAP	85	288	6
HLD	86	0	7	192
HLD	86	192	5	192
TAP	87	0	3
TAP	87	96	3
TAP	87	192	1
BRK	87	288	1
TAP	88	0	0
TAP	88	0	7
TAP	88	96	0
TAP	88	96	7
STR	88	192	0
SCR	88	192	0	96	480	4
TAP	88	192	7

T_REC_TAP	254
T_REC_BRK	9
T_REC_XTP	0
T_REC_HLD	29
T_REC_XHO	0
T_REC_STR	9
T_REC_BST	0
T_REC_XST	0
T_REC_TTP	0
T_REC_THO	0
T_REC_SLD	9
T_REC_ALL	310
T_NUM_TAP	263
T_NUM_BRK	9
T_NUM_HLD	29
T_NUM_SLD	9
T_NUM_ALL	310
T_JUDGE_TAP	272
T_JUDGE_HLD	88
T_JUDGE_SLD	9
T_JUDGE_ALL	369
TTM_EACHPAIRS	76
TTM_SCR_TAP	131500
TTM_SCR_BRK	23400
TTM_SCR_HLD	29000
TTM_SCR_SLD	13500
TTM_SCR_ALL	197400
TTM_SCR_S	190650
TTM_SCR_SS	196500
TTM_RAT_ACV	10045

