VERSION	0.00.00	1.03.00
FES_MODE	0
BPM_DEF	168.000	168.000	195.000	168.000
MET_DEF	4	4
RESOLUTION	384
CLK_DEF	384
COMPATIBLE_CODE	MA2

BPM	0	0	168.000
BPM	74	0	174.000
BPM	78	0	180.000
BPM	80	0	183.000
BPM	84	0	184.001
BPM	85	0	190.000
BPM	88	0	193.001
BPM	88	192	195.000
MET	0	0	4	4

TAP	6	0	1
TAP	6	192	1
TAP	7	0	2
TAP	7	192	2
TAP	8	0	3
TAP	8	192	3
TAP	9	0	3
TAP	9	0	4
TAP	9	192	3
TAP	9	192	4
TAP	10	0	5
TAP	10	96	5
TAP	10	288	5
TAP	11	96	4
TAP	11	288	4
TAP	12	96	3
TAP	12	288	3
TAP	13	96	2
TAP	13	288	2
TAP	14	96	1
TAP	14	288	1
TAP	15	96	0
TAP	15	288	0
TAP	16	96	7
TAP	16	288	7
TAP	17	96	6
TAP	17	288	6
STR	18	0	6
SI_	18	0	6	96	288	2
STR	20	0	1
SI_	20	0	1	96	288	5
STR	22	0	7
SI_	22	0	7	96	288	4
STR	24	0	3
SI_	24	0	3	96	288	0
TAP	26	0	7
TAP	27	0	7
HLD	28	0	6	384
TAP	30	0	5
TAP	31	0	4
TAP	32	0	3
TAP	32	192	4
TAP	33	0	3
TAP	33	0	4
BRK	33	192	3
BRK	33	192	4
TAP	35	0	1
TAP	35	192	1
TAP	36	0	2
TAP	36	96	2
TAP	36	192	2
TAP	37	0	3
TAP	37	192	3
TAP	38	0	4
TAP	38	96	4
TAP	38	192	4
TAP	39	0	5
TAP	39	192	5
TAP	40	0	6
TAP	40	96	6
TAP	40	192	6
TAP	41	0	7
TAP	41	192	7
TAP	42	0	0
TAP	42	0	7
TAP	43	0	6
TAP	43	192	6
TAP	44	0	5
TAP	44	96	5
TAP	44	192	5
TAP	45	0	4
TAP	45	192	4
TAP	46	0	3
TAP	46	96	3
TAP	46	192	3
TAP	47	0	2
TAP	47	192	2
TAP	48	0	1
TAP	48	96	1
TAP	48	192	1
TAP	49	0	0
TAP	49	192	0
BRK	50	0	0
BRK	50	0	7
HLD	51	0	0	288
HLD	52	96	7	288
HLD	53	192	1	288
HLD	54	288	6	288
TAP	56	0	0
TAP	56	192	1
TAP	57	0	2
TAP	57	96	2
TAP	57	192	2
TAP	58	0	2
TAP	58	192	3
TAP	59	0	4
TAP	59	96	4
TAP	59	192	4
TAP	60	0	4
TAP	60	192	5
TAP	61	0	6
TAP	61	96	6
TAP	61	192	6
TAP	62	0	6
TAP	62	192	7
TAP	63	0	0
TAP	63	96	0
TAP	63	192	0
TAP	64	0	7
TAP	64	192	6
TAP	65	0	5
TAP	65	96	5
TAP	65	192	5
TAP	66	0	5
TAP	66	192	4
TAP	67	0	3
TAP	67	96	3
TAP	67	192	3
TAP	68	0	3
TAP	68	192	2
TAP	69	0	1
TAP	69	96	1
TAP	69	192	1
TAP	70	0	1
TAP	70	192	0
TAP	71	0	7
TAP	71	96	7
BRK	71	192	7
TAP	72	0	0
TAP	72	0	1
TAP	72	192	0
TAP	72	192	1
TAP	73	0	2
TAP	73	96	2
TAP	73	192	2
TAP	74	0	2
TAP	74	0	3
TAP	74	192	2
TAP	74	192	3
TAP	75	0	4
TAP	75	96	4
TAP	75	192	4
TAP	76	0	4
TAP	76	0	5
TAP	76	192	4
TAP	76	192	5
TAP	77	0	6
TAP	77	96	6
TAP	77	192	6
TAP	78	0	6
TAP	78	0	7
TAP	78	192	6
TAP	78	192	7
TAP	79	0	0
TAP	79	96	0
BRK	79	192	0
TAP	80	0	0
TAP	80	192	0
TAP	81	0	7
TAP	81	96	7
TAP	81	192	7
TAP	82	0	6
TAP	82	192	6
TAP	83	0	5
TAP	83	96	5
TAP	83	192	5
TAP	84	0	4
TAP	84	192	4
TAP	85	0	3
TAP	85	96	3
TAP	85	192	3
TAP	86	0	2
TAP	86	192	2
TAP	87	0	1
TAP	87	96	1
BRK	87	192	1
TAP	88	0	0
TAP	88	96	0
STR	88	192	0
SI_	88	192	0	96	480	4

T_REC_TAP	158
T_REC_BRK	7
T_REC_XTP	0
T_REC_HLD	5
T_REC_XHO	0
T_REC_STR	5
T_REC_BST	0
T_REC_XST	0
T_REC_TTP	0
T_REC_THO	0
T_REC_SLD	5
T_REC_ALL	180
T_NUM_TAP	163
T_NUM_BRK	7
T_NUM_HLD	5
T_NUM_SLD	5
T_NUM_ALL	180
T_JUDGE_TAP	170
T_JUDGE_HLD	32
T_JUDGE_SLD	5
T_JUDGE_ALL	207
TTM_EACHPAIRS	14
TTM_SCR_TAP	81500
TTM_SCR_BRK	18200
TTM_SCR_HLD	5000
TTM_SCR_SLD	7500
TTM_SCR_ALL	112200
TTM_SCR_S	108200
TTM_SCR_SS	111500
TTM_RAT_ACV	10062

