VERSION	0.00.00	1.03.00
FES_MODE	0
BPM_DEF	190.000	190.000	190.000	190.000
MET_DEF	4	4
RESOLUTION	384
CLK_DEF	384
COMPATIBLE_CODE	MA2

BPM	0	0	190.000
MET	0	0	4	4

TAP	3	0	6
HLD	3	48	6	144
TAP	3	192	7
HLD	3	240	7	144
TAP	4	0	0
HLD	4	48	0	144
TAP	4	192	1
STR	4	240	2
SI_	4	240	2	96	48	7
TAP	4	288	2
TAP	5	0	1
HLD	5	48	1	144
TAP	5	192	0
HLD	5	240	0	144
TAP	6	0	7
HLD	6	48	7	144
TAP	6	192	6
STR	6	240	6
SI_	6	240	6	96	48	3
TAP	6	288	6
TAP	7	0	2
HLD	7	48	2	144
TAP	7	192	3
HLD	7	240	3	144
TAP	8	0	4
HLD	8	48	4	144
TAP	8	192	5
STR	8	240	5
SI_	8	240	5	96	48	0
TAP	8	288	5
TAP	9	0	7
HLD	9	48	7	144
TAP	9	192	1
HLD	9	240	1	144
TAP	10	0	3
TAP	10	96	5
TAP	10	144	4
STR	10	192	5
SI_	10	192	5	96	48	1
TAP	11	0	7
TAP	11	48	7
TAP	11	96	6
TAP	11	144	7
TAP	11	192	0
TAP	11	240	0
TAP	11	288	1
TAP	11	336	0
TAP	12	0	6
TAP	12	48	6
TAP	12	96	5
TAP	12	144	6
TAP	12	192	4
TAP	12	240	3
BRK	12	288	2
TAP	13	0	0
TAP	13	48	0
TAP	13	96	1
TAP	13	144	0
TAP	13	192	7
TAP	13	240	7
TAP	13	288	6
TAP	13	336	7
TAP	14	0	1
TAP	14	48	1
TAP	14	96	2
TAP	14	144	1
TAP	14	192	3
TAP	14	240	4
BRK	14	288	5
TAP	15	0	0
TAP	15	48	0
TAP	15	72	7
TAP	15	96	1
TAP	15	144	1
TAP	15	192	2
TAP	15	240	3
TAP	15	288	4
TAP	15	336	5
TAP	16	0	7
TAP	16	48	7
TAP	16	72	0
TAP	16	96	6
TAP	16	144	6
TAP	16	192	5
TAP	16	240	4
BRK	16	288	3
TAP	17	0	6
TAP	17	48	6
TAP	17	72	5
TAP	17	96	7
TAP	17	144	0
TAP	17	192	1
TAP	17	240	1
TAP	17	264	2
TAP	17	288	0
TAP	17	336	7
STR	18	0	6
SCL	18	0	6	96	48	3
STR	18	48	3
SCL	18	48	3	96	48	0
BRK	18	288	7
TAP	19	0	2
TAP	19	48	1
TAP	19	96	2
TAP	19	144	3
TAP	19	192	2
TAP	19	240	1
TAP	19	288	2
TAP	19	336	3
TAP	20	0	2
TAP	20	48	1
TAP	20	96	2
TAP	20	144	3
TAP	20	192	2
TAP	20	192	3
TAP	20	240	1
TAP	20	288	2
TAP	20	288	3
TAP	20	336	4
TAP	21	0	5
TAP	21	48	6
TAP	21	96	5
TAP	21	144	4
TAP	21	192	5
TAP	21	240	6
TAP	21	288	5
TAP	21	336	4
TAP	22	0	5
TAP	22	48	6
TAP	22	96	5
TAP	22	144	4
TAP	22	192	4
TAP	22	192	5
TAP	22	240	6
TAP	22	288	4
TAP	22	288	5
TAP	22	336	7
TAP	23	0	6
TAP	23	48	7
TAP	23	96	6
TAP	23	144	5
TAP	23	192	6
TAP	23	240	7
TAP	23	288	6
TAP	23	336	5
TAP	24	0	6
TAP	24	48	7
TAP	24	96	6
TAP	24	144	5
TAP	24	192	6
TAP	24	192	7
TAP	24	240	5
TAP	24	288	6
TAP	24	288	7
TAP	24	336	0
TAP	25	0	1
TAP	25	48	2
TAP	25	96	1
TAP	25	144	0
TAP	25	192	1
TAP	25	240	2
TAP	25	288	1
TAP	25	336	0
TAP	26	0	1
TAP	26	48	2
TAP	26	96	1
TAP	26	144	0
TAP	26	192	0
TAP	26	192	1
TAP	26	240	2
TAP	26	288	0
TAP	26	288	1
TAP	26	336	3
TAP	27	0	2
TAP	27	0	3
TAP	27	48	1
TAP	27	96	2
TAP	27	96	3
TAP	27	144	4
TAP	27	192	2
TAP	27	192	3
TAP	27	240	1
TAP	27	288	2
TAP	27	288	3
TAP	27	336	4
BRK	28	0	2
BRK	28	0	3
TAP	28	48	1
TAP	28	96	2
TAP	28	96	3
TAP	28	144	4
TAP	28	192	3
TAP	28	240	3
TAP	28	288	5
TAP	28	336	5
TAP	29	0	4
TAP	29	0	5
TAP	29	48	6
TAP	29	96	4
TAP	29	96	5
TAP	29	144	3
TAP	29	192	4
TAP	29	192	5
TAP	29	240	6
TAP	29	288	4
TAP	29	288	5
TAP	29	336	3
BRK	30	0	4
BRK	30	0	5
TAP	30	48	6
TAP	30	96	4
TAP	30	96	5
TAP	30	144	3
TAP	30	192	5
TAP	30	240	5
TAP	30	288	0
TAP	30	336	0
TAP	31	0	6
TAP	31	0	7
TAP	31	48	0
TAP	31	96	6
TAP	31	96	7
TAP	31	144	5
TAP	31	192	6
TAP	31	192	7
TAP	31	240	0
TAP	31	288	6
TAP	31	288	7
TAP	31	336	5
TAP	32	0	6
TAP	32	0	7
TAP	32	48	0
TAP	32	96	6
TAP	32	96	7
TAP	32	144	5
TAP	32	192	2
TAP	32	240	2
TAP	32	288	7
TAP	32	336	7
TAP	33	0	0
TAP	33	0	1
TAP	33	48	7
TAP	33	96	0
TAP	33	96	1
TAP	33	144	2
TAP	33	192	0
TAP	33	192	1
TAP	33	240	7
TAP	33	288	0
TAP	33	288	1
TAP	33	336	2
TAP	34	0	0
TAP	34	0	1
TAP	34	48	7
TAP	34	96	0
TAP	34	96	1
TAP	34	144	2
TAP	34	192	3
TAP	34	240	4
TAP	34	288	5
TAP	34	336	6
STR	35	0	7
SI_	35	0	7	96	96	3
TAP	35	288	5
TAP	35	336	4
TAP	36	0	3
TAP	36	48	2
TAP	36	192	6
TAP	36	216	7
TAP	36	240	6
TAP	36	264	7
BRK	36	288	6
TAP	37	0	1
TAP	37	24	0
TAP	37	48	1
TAP	37	72	0
BRK	37	96	1
TAP	37	240	3
TAP	37	240	4
TAP	37	288	3
TAP	37	288	4
STR	38	96	2
SCR	38	96	2	96	96	5
TAP	39	0	1
TAP	39	48	1
TAP	39	72	0
TAP	39	96	2
TAP	39	144	2
TAP	39	192	6
TAP	39	240	6
TAP	39	264	7
TAP	39	288	5
TAP	39	336	5
TAP	40	0	5
TAP	40	48	4
TAP	40	96	3
TAP	40	144	2
HLD	40	192	1	96
TAP	40	288	2
TAP	41	0	7
TAP	41	48	7
TAP	41	72	6
TAP	41	96	0
TAP	41	144	7
TAP	41	192	0
TAP	41	240	0
TAP	41	264	1
TAP	41	288	7
TAP	41	336	0
TAP	42	0	2
TAP	42	48	3
TAP	42	96	4
TAP	42	144	5
HLD	42	192	6	96
TAP	42	288	5
TAP	43	0	2
TAP	43	48	2
TAP	43	72	3
TAP	43	96	1
TAP	43	144	1
TAP	43	192	5
TAP	43	240	5
TAP	43	264	4
TAP	43	288	6
TAP	43	336	6
TAP	44	0	4
TAP	44	48	3
TAP	44	96	2
TAP	44	144	1
STR	44	192	0
SI_	44	192	0	96	48	4
TAP	45	0	5
TAP	45	48	5
TAP	45	72	4
TAP	45	96	6
TAP	45	144	5
TAP	45	192	2
TAP	45	240	2
TAP	45	264	3
TAP	45	288	1
TAP	45	336	2
TAP	46	0	3
TAP	46	48	4
TAP	46	96	5
TAP	46	144	6
STR	46	192	7
SI_	46	192	7	96	48	3
TAP	47	0	2
TAP	47	48	2
TAP	47	72	3
TAP	47	96	1
TAP	47	144	1
TAP	47	192	6
TAP	47	240	6
TAP	47	264	7
TAP	47	288	5
TAP	47	336	5
TAP	48	0	7
TAP	48	48	0
TAP	48	96	1
TAP	48	144	2
HLD	48	192	3	96
TAP	48	288	2
STR	49	0	4
SI_	49	0	4	96	48	0
STR	49	192	3
SI_	49	192	3	96	48	7
STR	50	0	5
SI_	50	0	5	96	48	0
STR	50	96	2
SI_	50	96	2	96	48	7
STR	50	192	1
SI_	50	192	1	96	48	4
BRK	50	288	6
STR	51	0	6
SCL	51	0	6	96	96	3
STR	51	96	3
SCL	51	96	3	96	96	0
TAP	51	192	0
TAP	51	240	7
TAP	51	288	6
TAP	51	336	5
TAP	52	0	4
TAP	52	48	3
TAP	52	96	2
TAP	52	144	2
TAP	52	168	3
TAP	52	192	2
TAP	52	240	1
TAP	52	288	0
TAP	52	288	1
STR	53	0	1
SCR	53	0	1	96	96	4
STR	53	96	4
SCR	53	96	4	96	96	7
TAP	53	192	7
TAP	53	240	0
TAP	53	288	1
TAP	53	336	2
TAP	54	0	3
TAP	54	48	4
TAP	54	96	5
TAP	54	144	5
TAP	54	168	4
HLD	54	192	5	96
TAP	54	288	6
STR	55	0	0
SCL	55	0	0	96	96	5
STR	55	96	5
SCL	55	96	5	96	96	2
TAP	55	192	2
TAP	55	240	1
TAP	55	288	0
TAP	55	336	7
TAP	56	0	6
TAP	56	48	5
TAP	56	96	4
TAP	56	144	2
TAP	56	168	3
TAP	56	192	2
TAP	56	240	1
TAP	56	288	0
TAP	56	288	1
STR	57	0	7
SCR	57	0	7	96	96	2
STR	57	96	2
SCR	57	96	2	96	96	5
TAP	57	192	5
TAP	57	240	6
TAP	57	288	7
TAP	57	336	0
TAP	58	0	1
TAP	58	48	2
TAP	58	96	3
TAP	58	144	5
TAP	58	168	4
HLD	58	192	5	96
BRK	58	288	6
STR	59	0	1
SI_	59	0	1	96	48	4
TAP	59	96	5
TAP	59	192	4
TAP	59	240	6
TAP	59	264	5
TAP	59	288	6
TAP	59	336	6
TAP	60	0	7
TAP	60	48	0
TAP	60	96	1
TAP	60	144	1
TAP	60	168	2
STR	60	192	1
SI_	60	192	1	96	48	5
BRK	60	288	6
STR	61	0	6
SI_	61	0	6	96	48	3
TAP	61	96	2
TAP	61	192	3
TAP	61	240	1
TAP	61	264	2
TAP	61	288	1
TAP	61	336	1
TAP	62	0	0
TAP	62	48	7
TAP	62	96	6
TAP	62	144	6
TAP	62	168	5
STR	62	192	6
SI_	62	192	6	96	48	2
BRK	62	288	7
STR	63	0	5
SI_	63	0	5	96	48	0
TAP	63	96	6
TAP	63	192	7
TAP	63	240	6
TAP	63	264	5
TAP	63	288	6
TAP	63	336	4
TAP	64	0	3
TAP	64	48	2
TAP	64	96	1
TAP	64	144	1
TAP	64	168	2
STR	64	192	1
SI_	64	192	1	96	48	4
BRK	64	288	2
STR	65	0	2
SI_	65	0	2	96	48	7
TAP	65	96	1
TAP	65	192	0
TAP	65	240	1
TAP	65	264	2
TAP	65	288	1
TAP	65	336	3
TAP	66	0	4
TAP	66	48	5
TAP	66	96	6
TAP	66	144	6
TAP	66	168	5
STR	66	192	6
SI_	66	192	6	96	48	3
BRK	66	288	1
TAP	67	0	7
TAP	67	48	0
TAP	67	72	6
TAP	67	96	7
TAP	67	144	5
TAP	67	192	6
TAP	67	240	7
STR	67	288	0
SI_	67	288	0	96	48	4
STR	68	0	7
SI_	68	0	7	96	48	3
STR	68	96	0
SI_	68	96	0	96	48	5
STR	68	192	7
SI_	68	192	7	96	48	2
TAP	69	0	3
TAP	69	48	4
TAP	69	72	2
TAP	69	96	3
TAP	69	144	1
TAP	69	192	2
TAP	69	240	3
STR	69	288	4
SI_	69	288	4	96	48	0
STR	70	0	3
SI_	70	0	3	96	48	7
STR	70	96	4
SI_	70	96	4	96	48	1
STR	70	192	3
SI_	70	192	3	96	48	6
TAP	71	0	6
TAP	71	48	5
TAP	71	72	7
TAP	71	96	6
TAP	71	144	0
TAP	71	192	7
TAP	71	240	6
STR	71	288	5
SI_	71	288	5	96	48	1
STR	72	0	6
SI_	72	0	6	96	48	2
STR	72	96	5
SI_	72	96	5	96	48	0
STR	72	192	6
SI_	72	192	6	96	48	3
TAP	73	0	1
TAP	73	48	2
TAP	73	72	0
TAP	73	96	1
TAP	73	144	7
TAP	73	192	0
TAP	73	240	1
STR	73	288	2
SI_	73	288	2	96	48	6
STR	74	0	1
SI_	74	0	1	96	48	5
STR	74	96	2
SI_	74	96	2	96	48	7
STR	74	192	1
SI_	74	192	1	96	48	4
TAP	75	0	5
TAP	75	48	5
TAP	75	72	4
TAP	75	96	6
TAP	75	144	6
TAP	75	192	7
TAP	75	240	7
TAP	75	264	6
STR	75	288	0
SI_	75	288	0	96	48	4
TAP	75	336	0
STR	76	0	7
SI_	76	0	7	96	48	3
TAP	76	48	7
STR	76	96	0
SI_	76	96	0	96	48	5
TAP	76	144	0
STR	76	192	7
SI_	76	192	7	96	48	2
TAP	76	240	7
TAP	77	0	1
TAP	77	48	1
TAP	77	72	3
TAP	77	96	2
TAP	77	144	2
TAP	77	192	3
TAP	77	240	3
TAP	77	264	5
STR	77	288	4
SI_	77	288	4	96	48	0
TAP	77	336	4
STR	78	0	3
SI_	78	0	3	96	48	7
TAP	78	48	3
STR	78	96	4
SI_	78	96	4	96	48	1
TAP	78	144	4
STR	78	192	3
SI_	78	192	3	96	48	6
TAP	78	240	3
TAP	79	0	0
TAP	79	48	0
TAP	79	72	6
TAP	79	96	7
TAP	79	144	7
TAP	79	192	6
TAP	79	240	6
TAP	79	264	4
STR	79	288	5
SI_	79	288	5	96	48	1
TAP	79	336	5
STR	80	0	6
SI_	80	0	6	96	48	2
TAP	80	48	6
STR	80	96	5
SI_	80	96	5	96	48	0
TAP	80	144	5
STR	80	192	6
SI_	80	192	6	96	48	3
TAP	80	240	6
TAP	81	0	7
TAP	81	48	7
TAP	81	72	1
TAP	81	96	0
TAP	81	144	0
TAP	81	192	1
TAP	81	240	1
TAP	81	264	3
STR	81	288	2
SI_	81	288	2	96	48	6
TAP	81	336	2
STR	82	0	1
SI_	82	0	1	96	48	5
TAP	82	48	1
STR	82	96	2
SI_	82	96	2	96	48	7
TAP	82	144	2
STR	82	192	1
SI_	82	192	1	96	96	4
TAP	82	240	1
STR	82	288	4
SCR	82	288	4	96	96	7
STR	83	0	7
SCR	83	0	7	96	96	2

T_REC_TAP	484
T_REC_BRK	16
T_REC_XTP	0
T_REC_HLD	16
T_REC_XHO	0
T_REC_STR	65
T_REC_BST	0
T_REC_XST	0
T_REC_TTP	0
T_REC_THO	0
T_REC_SLD	65
T_REC_ALL	646
T_NUM_TAP	549
T_NUM_BRK	16
T_NUM_HLD	16
T_NUM_SLD	65
T_NUM_ALL	646
T_JUDGE_TAP	565
T_JUDGE_HLD	43
T_JUDGE_SLD	65
T_JUDGE_ALL	673
TTM_EACHPAIRS	36
TTM_SCR_TAP	274500
TTM_SCR_BRK	41600
TTM_SCR_HLD	16000
TTM_SCR_SLD	97500
TTM_SCR_ALL	429600
TTM_SCR_S	415200
TTM_SCR_SS	428000
TTM_RAT_ACV	10037

