VERSION	0.00.00	1.03.00
FES_MODE	0
BPM_DEF	190.000	190.000	190.000	190.000
MET_DEF	4	4
RESOLUTION	384
CLK_DEF	384
COMPATIBLE_CODE	MA2

BPM	0	0	190.000
MET	0	0	4	4

HLD	3	0	1	192
HLD	3	192	2	192
HLD	4	0	3	192
TAP	4	192	5
TAP	4	240	4
TAP	4	288	5
HLD	5	0	6	192
HLD	5	192	5	192
HLD	6	0	4	192
TAP	6	192	2
TAP	6	240	3
TAP	6	288	2
HLD	7	0	1	192
HLD	7	192	2	192
HLD	8	0	3	192
TAP	8	192	5
TAP	8	240	4
TAP	8	288	5
HLD	9	0	6	192
HLD	9	192	5	192
TAP	10	0	4
TAP	10	96	3
BRK	10	192	1
BRK	10	192	6
TAP	11	0	5
TAP	11	96	4
TAP	11	96	5
TAP	11	192	2
TAP	11	288	2
TAP	11	288	3
TAP	12	0	5
TAP	12	96	4
TAP	12	96	6
HLD	12	192	1	96
TAP	12	288	0
TAP	13	0	2
TAP	13	96	2
TAP	13	96	3
TAP	13	192	5
TAP	13	288	4
TAP	13	288	5
TAP	14	0	2
TAP	14	96	1
TAP	14	96	3
HLD	14	192	7	96
TAP	14	288	6
TAP	15	0	5
TAP	15	96	4
TAP	15	96	5
TAP	15	192	2
TAP	15	288	2
TAP	15	288	3
TAP	16	0	6
TAP	16	96	6
TAP	16	96	7
HLD	16	192	0	96
TAP	16	288	1
STR	17	0	0
SCR	17	0	0	96	48	3
STR	17	192	4
SCR	17	192	4	96	48	7
TAP	18	0	0
TAP	18	0	1
TAP	18	96	6
TAP	18	96	7
TAP	18	192	2
STR	18	192	5
SI_	18	192	5	96	48	2
TAP	19	0	3
TAP	19	96	3
TAP	19	192	4
TAP	19	288	4
TAP	20	0	3
TAP	20	96	3
TAP	20	192	4
TAP	20	288	4
TAP	21	0	2
TAP	21	96	2
TAP	21	192	5
TAP	21	288	5
TAP	22	0	1
TAP	22	96	0
TAP	22	192	7
TAP	22	240	6
TAP	22	288	7
TAP	23	0	5
TAP	23	96	5
TAP	23	192	2
TAP	23	288	2
TAP	24	0	5
TAP	24	96	5
HLD	24	192	2	96
HLD	24	288	3	96
TAP	25	0	4
TAP	25	96	4
TAP	25	192	3
TAP	25	288	3
TAP	26	0	6
TAP	26	96	7
TAP	26	192	0
TAP	26	240	1
TAP	26	288	0
TAP	27	0	0
TAP	27	0	1
TAP	27	96	2
TAP	27	192	3
TAP	27	288	4
TAP	28	0	6
TAP	28	0	7
TAP	28	96	5
TAP	28	192	4
TAP	28	288	3
TAP	29	0	0
TAP	29	0	1
TAP	29	96	2
TAP	29	192	3
TAP	29	288	4
TAP	30	0	6
TAP	30	0	7
TAP	30	96	0
TAP	30	96	1
TAP	30	192	3
TAP	30	240	4
TAP	30	288	3
TAP	31	0	5
TAP	31	0	7
TAP	31	96	6
TAP	31	192	1
TAP	31	288	4
TAP	32	0	0
TAP	32	0	2
TAP	32	96	1
TAP	32	192	6
TAP	32	288	3
TAP	33	0	5
TAP	33	0	7
TAP	33	96	6
TAP	33	192	0
TAP	33	192	2
TAP	33	288	1
TAP	34	0	2
TAP	34	0	3
TAP	34	96	4
TAP	34	96	5
TAP	34	192	0
TAP	34	240	7
TAP	34	288	0
TAP	35	0	1
TAP	35	48	1
TAP	35	96	1
TAP	35	192	7
TAP	35	240	7
TAP	35	288	7
HLD	36	0	1	96
HLD	36	96	2	96
HLD	36	192	3	96
TAP	36	288	4
TAP	37	0	6
TAP	37	48	6
TAP	37	96	6
TAP	37	192	0
TAP	37	240	0
TAP	37	288	0
HLD	38	0	6	96
HLD	38	96	5	96
HLD	38	192	4	96
TAP	38	240	3
TAP	38	288	3
TAP	39	0	1
TAP	39	48	1
TAP	39	96	1
TAP	39	192	7
TAP	39	240	7
TAP	39	288	7
HLD	40	0	1	96
HLD	40	96	2	96
HLD	40	192	3	96
TAP	40	288	4
TAP	41	0	6
TAP	41	48	6
TAP	41	96	6
TAP	41	192	0
TAP	41	240	0
TAP	41	288	0
HLD	42	0	6	96
HLD	42	96	5	96
HLD	42	192	4	96
TAP	42	240	3
TAP	42	288	3
TAP	43	0	1
TAP	43	48	0
TAP	43	96	1
TAP	43	192	6
TAP	43	240	7
TAP	43	288	6
TAP	44	0	1
TAP	44	48	1
TAP	44	96	2
TAP	44	144	2
TAP	44	192	3
TAP	44	240	4
TAP	44	288	5
TAP	45	0	6
TAP	45	48	7
TAP	45	96	6
TAP	45	192	1
TAP	45	240	0
TAP	45	288	1
TAP	46	0	6
TAP	46	48	6
TAP	46	96	5
TAP	46	144	5
TAP	46	192	4
TAP	46	240	3
TAP	46	288	2
TAP	47	0	0
TAP	47	48	1
TAP	47	96	2
TAP	47	192	7
TAP	47	240	6
TAP	47	288	5
TAP	48	0	3
TAP	48	48	4
TAP	48	96	2
TAP	48	144	5
TAP	48	192	0
TAP	48	240	7
TAP	48	288	1
TAP	48	288	6
TAP	49	0	2
TAP	49	0	3
TAP	49	192	4
TAP	49	192	5
TAP	50	0	2
TAP	50	0	3
TAP	50	96	4
TAP	50	96	5
TAP	50	192	3
TAP	50	192	4
BRK	50	288	1
BRK	50	288	6
TAP	51	0	1
TAP	51	0	7
TAP	51	96	1
TAP	51	96	7
TAP	51	192	0
TAP	51	192	6
TAP	51	288	0
TAP	51	288	6
TAP	52	0	1
TAP	52	0	7
TAP	52	96	1
TAP	52	96	7
TAP	52	192	0
TAP	52	192	6
TAP	52	288	0
TAP	52	288	6
TAP	53	0	1
TAP	53	0	7
TAP	53	96	0
TAP	53	96	6
TAP	53	192	1
TAP	53	192	7
TAP	53	288	0
TAP	53	288	6
TAP	54	0	0
TAP	54	0	1
TAP	54	96	3
TAP	54	96	6
TAP	54	192	2
TAP	54	192	7
TAP	54	288	4
TAP	54	288	5
TAP	55	0	0
TAP	55	0	6
TAP	55	96	0
TAP	55	96	6
TAP	55	192	1
TAP	55	192	7
TAP	55	288	1
TAP	55	288	7
TAP	56	0	0
TAP	56	0	6
TAP	56	96	0
TAP	56	96	6
TAP	56	192	1
TAP	56	192	7
TAP	56	288	1
TAP	56	288	7
TAP	57	0	0
TAP	57	0	6
TAP	57	96	1
TAP	57	96	7
TAP	57	192	0
TAP	57	192	6
TAP	57	288	1
TAP	57	288	7
TAP	58	0	6
TAP	58	0	7
TAP	58	96	1
TAP	58	96	4
TAP	58	192	0
TAP	58	192	5
TAP	58	288	2
TAP	58	288	3
TAP	59	0	0
TAP	59	0	1
TAP	59	96	2
TAP	59	96	7
TAP	59	192	6
TAP	59	192	7
TAP	59	288	0
TAP	59	288	5
TAP	60	0	0
TAP	60	0	1
TAP	60	96	2
TAP	60	96	7
TAP	60	192	6
TAP	60	192	7
TAP	60	288	0
TAP	60	288	5
TAP	61	0	0
TAP	61	0	1
TAP	61	96	3
TAP	61	96	7
TAP	61	192	6
TAP	61	192	7
TAP	61	288	0
TAP	61	288	4
TAP	62	0	0
TAP	62	0	2
TAP	62	96	5
TAP	62	96	7
TAP	62	192	3
TAP	62	192	6
TAP	62	288	1
TAP	62	288	4
HLD	63	0	0	96
TAP	63	0	1
TAP	63	96	1
TAP	63	192	6
HLD	63	192	7	96
TAP	63	288	6
HLD	64	0	0	96
TAP	64	0	1
TAP	64	96	1
TAP	64	192	6
HLD	64	192	7	96
TAP	64	288	6
TAP	65	0	0
TAP	65	0	1
TAP	65	96	6
TAP	65	96	7
TAP	65	192	2
TAP	65	192	3
TAP	65	288	4
TAP	65	288	5
TAP	66	0	0
STR	66	0	1
SI_	66	0	1	96	48	4
TAP	66	96	0
STR	66	192	6
SI_	66	192	6	96	48	3
TAP	66	192	7
TAP	66	288	7
TAP	67	0	3
HLD	67	0	4	288
TAP	67	96	3
TAP	67	192	3
TAP	67	288	3
TAP	68	0	3
HLD	68	0	5	96
TAP	68	96	3
TAP	68	192	3
HLD	68	192	6	96
TAP	68	288	3
TAP	69	0	3
HLD	69	0	7	96
TAP	69	96	3
HLD	69	192	0	96
TAP	69	192	3
TAP	69	288	3
STR	69	336	0
SCL	69	336	0	96	240	5
TAP	70	0	3
TAP	70	96	2
TAP	70	192	1
BRK	70	288	0
HLD	71	0	3	288
TAP	71	0	4
TAP	71	96	4
TAP	71	192	4
TAP	71	288	4
HLD	72	0	2	96
TAP	72	0	4
TAP	72	96	4
HLD	72	192	1	96
TAP	72	192	4
TAP	72	288	4
HLD	73	0	0	96
TAP	73	0	4
TAP	73	96	4
TAP	73	192	4
HLD	73	192	7	96
TAP	73	288	4
STR	73	336	7
SCR	73	336	7	96	240	2
TAP	74	0	4
TAP	74	96	5
TAP	74	192	6
BRK	74	288	7
TAP	75	0	1
TAP	75	0	5
TAP	75	96	6
TAP	75	192	7
TAP	75	288	0
TAP	76	0	1
TAP	76	0	5
TAP	76	96	2
TAP	76	192	3
TAP	76	192	7
TAP	76	288	6
TAP	77	0	0
TAP	77	0	4
TAP	77	96	1
TAP	77	192	2
TAP	77	192	6
TAP	77	288	3
TAP	77	288	5
TAP	78	0	5
TAP	78	0	7
TAP	78	96	0
TAP	78	96	2
TAP	78	192	1
TAP	78	192	5
BRK	78	288	3
BRK	78	288	7
TAP	79	0	2
TAP	79	0	6
TAP	79	96	1
TAP	79	192	0
TAP	79	288	7
TAP	80	0	2
TAP	80	0	6
TAP	80	96	5
TAP	80	192	0
TAP	80	192	4
TAP	80	288	1
TAP	81	0	3
TAP	81	0	7
TAP	81	96	6
TAP	81	192	1
TAP	81	192	5
TAP	81	288	2
TAP	81	288	4
TAP	82	0	0
TAP	82	0	2
TAP	82	96	5
TAP	82	96	7
TAP	82	192	2
TAP	82	192	6
TAP	82	288	0
TAP	82	336	7
BRK	83	0	1
BRK	83	0	6

T_REC_TAP	399
T_REC_BRK	10
T_REC_XTP	0
T_REC_HLD	42
T_REC_XHO	0
T_REC_STR	7
T_REC_BST	0
T_REC_XST	0
T_REC_TTP	0
T_REC_THO	0
T_REC_SLD	7
T_REC_ALL	465
T_NUM_TAP	406
T_NUM_BRK	10
T_NUM_HLD	42
T_NUM_SLD	7
T_NUM_ALL	465
T_JUDGE_TAP	416
T_JUDGE_HLD	114
T_JUDGE_SLD	7
T_JUDGE_ALL	537
TTM_EACHPAIRS	119
TTM_SCR_TAP	203000
TTM_SCR_BRK	26000
TTM_SCR_HLD	42000
TTM_SCR_SLD	10500
TTM_SCR_ALL	281500
TTM_SCR_S	272100
TTM_SCR_SS	280500
TTM_RAT_ACV	10035

