VERSION	0.00.00	1.03.00
FES_MODE	0
BPM_DEF	190.000	190.000	190.000	190.000
MET_DEF	4	4
RESOLUTION	384
CLK_DEF	384
COMPATIBLE_CODE	MA2

BPM	0	0	190.000
MET	0	0	4	4

TAP	3	0	6
TAP	3	0	7
TAP	5	0	0
TAP	5	0	1
TAP	6	192	1
TAP	6	288	0
TAP	7	0	6
TAP	7	0	7
TAP	8	192	6
TAP	8	288	7
TAP	9	0	0
TAP	9	0	1
TAP	9	192	0
TAP	9	192	1
STR	10	0	0
SI_	10	0	0	96	120	3
TAP	11	0	6
TAP	11	192	4
TAP	12	0	2
TAP	12	192	6
TAP	12	192	7
TAP	12	288	6
TAP	12	288	7
TAP	13	0	1
TAP	13	192	3
TAP	14	0	5
TAP	14	192	0
TAP	14	192	1
TAP	14	288	0
TAP	14	288	1
TAP	15	0	6
TAP	15	192	4
TAP	16	0	2
TAP	16	192	6
TAP	16	192	7
TAP	16	288	6
TAP	16	288	7
TAP	17	0	7
TAP	17	192	6
TAP	18	0	6
TAP	18	0	7
TAP	18	96	0
TAP	18	96	7
BRK	18	192	0
BRK	18	192	1
TAP	19	96	2
TAP	19	288	3
TAP	20	96	5
TAP	20	288	4
TAP	21	96	2
TAP	21	288	3
TAP	22	96	4
TAP	22	192	5
TAP	22	288	6
TAP	23	96	6
TAP	23	288	7
TAP	24	96	1
TAP	24	288	0
TAP	25	96	6
TAP	25	288	7
TAP	26	96	0
TAP	26	192	1
TAP	26	288	2
TAP	27	96	2
TAP	27	288	4
TAP	28	96	5
TAP	28	288	3
TAP	29	96	2
TAP	29	288	4
TAP	30	96	5
TAP	30	192	6
TAP	30	288	7
TAP	31	96	7
TAP	31	288	5
TAP	32	96	6
TAP	32	288	4
TAP	33	96	3
TAP	33	288	1
TAP	34	96	2
TAP	34	192	1
TAP	34	288	0
HLD	35	0	6	96
HLD	35	192	7	96
TAP	36	0	0
TAP	36	96	1
TAP	36	192	2
HLD	37	0	2	96
HLD	37	192	3	96
TAP	38	0	4
TAP	38	96	5
TAP	38	192	6
HLD	39	0	6	96
HLD	39	192	7	96
TAP	40	0	0
TAP	40	96	1
TAP	40	192	2
HLD	41	0	2	96
HLD	41	192	3	96
TAP	42	0	4
TAP	42	96	5
TAP	42	192	6
TAP	42	288	7
TAP	43	0	6
TAP	43	96	6
TAP	43	192	7
TAP	43	288	7
TAP	44	0	0
TAP	44	96	1
TAP	44	192	2
TAP	45	0	2
TAP	45	96	2
TAP	45	192	3
TAP	45	288	3
TAP	46	0	4
TAP	46	96	5
TAP	46	192	6
TAP	47	0	6
TAP	47	96	6
TAP	47	192	7
TAP	47	288	7
TAP	48	0	0
TAP	48	96	1
TAP	48	192	2
TAP	49	0	2
TAP	49	0	3
TAP	49	192	4
TAP	49	192	5
TAP	50	0	6
TAP	50	0	7
TAP	50	96	6
TAP	50	96	7
TAP	50	192	0
TAP	50	192	1
BRK	51	0	6
TAP	51	96	7
TAP	51	192	6
TAP	51	288	7
TAP	52	0	1
TAP	52	96	0
TAP	52	192	1
TAP	52	288	0
TAP	53	0	2
TAP	53	96	3
TAP	53	192	4
TAP	53	288	5
STR	54	0	6
SCR	54	0	6	96	120	1
TAP	55	0	1
TAP	55	96	0
TAP	55	192	1
TAP	55	288	0
TAP	56	0	6
TAP	56	96	7
TAP	56	192	6
TAP	56	288	7
TAP	57	0	5
TAP	57	96	4
TAP	57	192	3
TAP	57	288	2
STR	58	0	2
SCR	58	0	2	96	120	5
TAP	59	0	6
TAP	59	0	7
TAP	59	96	6
TAP	59	96	7
TAP	59	192	6
TAP	59	192	7
TAP	60	0	0
TAP	60	0	1
TAP	60	96	0
TAP	60	96	1
TAP	60	192	0
TAP	60	192	1
TAP	61	0	2
TAP	61	96	3
TAP	61	192	5
TAP	61	288	4
STR	62	0	3
SI_	62	0	3	96	120	0
STR	62	0	4
SI_	62	0	4	96	120	7
TAP	63	0	0
TAP	63	0	1
TAP	63	96	0
TAP	63	96	1
TAP	63	192	0
TAP	63	192	1
TAP	64	0	6
TAP	64	0	7
TAP	64	96	6
TAP	64	96	7
TAP	64	192	6
TAP	64	192	7
TAP	65	0	5
TAP	65	96	4
TAP	65	192	3
TAP	65	288	2
STR	66	0	3
SI_	66	0	3	96	120	0
STR	66	0	4
SI_	66	0	4	96	120	7
HLD	67	0	6	96
HLD	67	0	7	96
HLD	67	192	0	96
HLD	67	192	1	96
TAP	68	0	6
TAP	68	96	7
TAP	68	192	1
TAP	68	288	0
TAP	69	0	1
TAP	69	96	1
TAP	69	192	0
TAP	69	288	0
STR	70	0	7
SCL	70	0	7	96	120	4
HLD	71	0	4	96
HLD	71	0	5	96
HLD	71	192	2	96
HLD	71	192	3	96
TAP	72	0	1
TAP	72	96	0
TAP	72	192	6
TAP	72	288	7
TAP	73	0	6
TAP	73	96	6
TAP	73	192	7
TAP	73	288	7
STR	74	0	0
SCR	74	0	0	96	120	3
HLD	75	0	2	96
HLD	75	0	3	96
HLD	75	192	4	96
HLD	75	192	5	96
TAP	76	0	6
TAP	76	0	7
TAP	76	96	6
TAP	76	96	7
TAP	76	192	0
TAP	76	192	1
TAP	76	288	0
TAP	76	288	1
TAP	77	0	2
TAP	77	96	3
TAP	77	192	5
TAP	77	288	4
STR	78	0	4
SI_	78	0	4	96	120	7
HLD	79	0	6	96
HLD	79	0	7	96
HLD	79	192	0	96
HLD	79	192	1	96
HLD	80	0	6	96
HLD	80	0	7	96
HLD	80	192	0	96
HLD	80	192	1	96
TAP	81	0	6
TAP	81	0	7
TAP	81	96	6
TAP	81	96	7
TAP	81	192	0
TAP	81	192	1
TAP	81	288	0
TAP	81	288	1
STR	82	0	3
SI_	82	0	3	96	120	0
STR	82	0	4
SI_	82	0	4	96	120	7
BRK	83	0	0
BRK	83	0	7

T_REC_TAP	212
T_REC_BRK	5
T_REC_XTP	0
T_REC_HLD	28
T_REC_XHO	0
T_REC_STR	12
T_REC_BST	0
T_REC_XST	0
T_REC_TTP	0
T_REC_THO	0
T_REC_SLD	12
T_REC_ALL	269
T_NUM_TAP	224
T_NUM_BRK	5
T_NUM_HLD	28
T_NUM_SLD	12
T_NUM_ALL	269
T_JUDGE_TAP	229
T_JUDGE_HLD	56
T_JUDGE_SLD	12
T_JUDGE_ALL	297
TTM_EACHPAIRS	53
TTM_SCR_TAP	112000
TTM_SCR_BRK	13000
TTM_SCR_HLD	28000
TTM_SCR_SLD	18000
TTM_SCR_ALL	171000
TTM_SCR_S	165400
TTM_SCR_SS	170500
TTM_RAT_ACV	10029

