VERSION	0.00.00	1.03.00
FES_MODE	0
BPM_DEF	190.000	190.000	190.000	190.000
MET_DEF	4	4
RESOLUTION	384
CLK_DEF	384
COMPATIBLE_CODE	MA2

BPM	0	0	190.000
MET	0	0	4	4

TAP	3	0	0
TAP	3	0	7
TAP	5	0	0
TAP	5	0	7
TAP	7	0	0
TAP	7	0	7
TAP	8	0	0
TAP	8	0	7
TAP	9	0	0
TAP	9	0	7
TAP	9	192	0
TAP	9	192	7
TAP	10	0	0
TAP	10	0	7
BRK	10	192	0
BRK	10	192	7
TAP	11	0	0
TAP	12	0	1
TAP	13	0	2
TAP	14	0	3
TAP	14	192	3
TAP	15	0	4
TAP	16	0	5
TAP	17	0	6
TAP	18	0	7
BRK	18	192	7
HLD	19	0	0	384
HLD	21	0	7	384
HLD	23	0	1	384
HLD	25	0	6	384
STR	27	0	0
SI_	27	0	0	96	288	3
STR	29	0	7
SI_	29	0	7	96	288	4
STR	31	0	0
SI_	31	0	0	96	288	4
STR	33	0	7
SI_	33	0	7	96	288	3
TAP	35	0	0
TAP	36	0	0
TAP	36	96	0
TAP	36	192	0
TAP	37	0	2
TAP	38	0	2
TAP	38	96	2
TAP	38	192	2
TAP	39	0	4
TAP	40	0	4
TAP	40	96	4
TAP	40	192	4
TAP	41	0	6
TAP	42	0	6
TAP	42	192	6
TAP	42	192	7
TAP	43	0	7
TAP	43	192	7
TAP	44	0	6
TAP	44	96	6
TAP	44	192	6
TAP	45	0	5
TAP	45	192	5
TAP	46	0	4
TAP	46	96	4
TAP	46	192	4
TAP	47	0	3
TAP	47	192	3
TAP	48	0	2
TAP	48	96	2
TAP	48	192	2
TAP	49	0	1
TAP	49	192	1
TAP	50	0	0
TAP	50	96	0
BRK	50	192	0
HLD	51	0	0	192
HLD	52	0	7	192
TAP	53	0	1
TAP	53	192	1
TAP	54	0	2
TAP	54	96	2
BRK	54	192	2
HLD	55	0	7	192
HLD	56	0	0	192
TAP	57	0	6
TAP	57	192	6
TAP	58	0	5
TAP	58	96	5
BRK	58	192	5
TAP	59	0	0
TAP	59	192	0
TAP	60	0	7
TAP	60	96	7
TAP	60	192	7
TAP	61	0	1
TAP	61	96	1
TAP	61	192	0
TAP	62	0	6
TAP	62	96	6
BRK	62	192	7
TAP	63	0	0
TAP	63	192	1
TAP	64	0	7
TAP	64	96	7
TAP	64	192	6
TAP	65	0	6
TAP	65	96	6
TAP	65	192	7
TAP	65	288	7
TAP	66	0	0
TAP	66	96	0
BRK	66	192	1
TAP	67	0	3
TAP	67	192	3
TAP	68	0	2
TAP	68	192	2
TAP	69	0	1
TAP	69	192	1
TAP	70	0	0
TAP	70	96	0
TAP	70	192	0
TAP	71	0	7
TAP	71	192	7
TAP	72	0	6
TAP	72	192	6
TAP	73	0	5
TAP	73	192	5
TAP	74	0	4
TAP	74	96	4
TAP	74	192	4
TAP	75	0	6
TAP	75	96	7
TAP	75	192	6
TAP	76	0	1
TAP	76	96	0
TAP	76	192	1
TAP	77	0	2
TAP	77	96	2
TAP	77	192	3
TAP	77	288	3
TAP	78	0	4
TAP	78	96	4
TAP	78	192	5
TAP	78	288	5
TAP	79	0	5
TAP	79	96	4
TAP	79	192	5
TAP	80	0	2
TAP	80	96	3
TAP	80	192	2
TAP	81	0	1
TAP	81	96	1
TAP	81	192	0
TAP	81	288	0
TAP	82	0	7
TAP	82	96	7
TAP	82	192	6
TAP	82	288	6
BRK	83	0	0
BRK	83	0	7

T_REC_TAP	133
T_REC_BRK	10
T_REC_XTP	0
T_REC_HLD	8
T_REC_XHO	0
T_REC_STR	4
T_REC_BST	0
T_REC_XST	0
T_REC_TTP	0
T_REC_THO	0
T_REC_SLD	4
T_REC_ALL	159
T_NUM_TAP	137
T_NUM_BRK	10
T_NUM_HLD	8
T_NUM_SLD	4
T_NUM_ALL	159
T_JUDGE_TAP	147
T_JUDGE_HLD	48
T_JUDGE_SLD	4
T_JUDGE_ALL	199
TTM_EACHPAIRS	10
TTM_SCR_TAP	68500
TTM_SCR_BRK	26000
TTM_SCR_HLD	8000
TTM_SCR_SLD	6000
TTM_SCR_ALL	108500
TTM_SCR_S	104300
TTM_SCR_SS	107500
TTM_RAT_ACV	10093

